BitTorrent клиенты



Я отдам тебе свою первую любовь / I Give My First Love to You / Boku no hatsukoi wo kimi ni sasagu (Такехико Синдзо / Takehiko Shinjo) [2009, Япония, драма, мелодрама, BDRip 720p] VO + Original Jap + Sub (Rus, Eng)

Ответить на тему
 
Автор Сообщение

Keeper ®

Пол: Не указан

Стаж: 1 год

Сообщений: 499

Создавать темы 07-Фев-2018 20:47

[Цитировать]

Я отдам тебе свою первую любовь | I Give My First Love to You
Boku no hatsukoi wo kimi ni sasagu | 僕の初恋をキミに捧ぐ
- - Страна: Япония
Студия: D.N. Dream Partners, Nippon Television Network (NTV), Pivot Plus Music (PPM)
Жанр: драма, мелодрама
Год выпуска: 2009
Продолжительность: 02:02:14
Перевод: Annyti & Tiris, одноголосый закадровый (Black)
Субтитры: русские, английские
Оригинальная аудиодорожка: японская-Режиссер: Такехико Синдзо | Takehiko Shinjo
Сценарий: Котоми Аоки, Кэндзи Бандо
В ролях: Мао Иноэ, Масаки Окада, Нацуки Харада, Кейко Хориути, Ёсихико Хосода, Масатака Кубота, Ёуко Моригучи, Тору Накамура, Мари Окамото, Тэтта Сугимото-Описание: История Такумы и Маю началась еще в детстве. Тогда из-за проблем с сердцем, Такума часто лежал в больнице, где и познакомился с дочерью своего лечащего врача — Маю. С тех пор они становились все ближе и ближе друг к другу. Когда Такуме было 8, он дал Маю обещание, которое не мог сдержать. Он пообещал, что женится на ней, когда им будет по двадцать… Это история их отношений, история их взросления, история их любви.-Сэмпл- ____ -Тип релиза: BDRip 720p
Контейнер: MKV
Видео: H.264/AVC (High@L4.1) | 1280x692p (16:9) | 23.976 fps | Constant | 4 483 kbps | 0.211 b/p
Аудио 1: русский язык | MPEG/L3 | 48 kHz | 2 channels | 224 Kbps
Аудио 2: японский язык | AC3 | 48 kHz | 6 channels (Front: L C R, Side: L R, LFE) | 640 Kbps
Субтитры: русские (srt), английские (srt)

MediaInfo

Код:General
Unique ID : 238606850233812935765102618816943182888 (0xB38201FDE0C9EB3C9080474ED75F5428)
Complete name : D:\Я отдам тебе свою первую любовь - Boku no hatsukoi wo kimi ni sasagu - I Give My First Love To You (Jap, 2009) BDRip.mkv
Format : Matroska
Format version : Version 2
File size : 4.55 GiB
Duration : 2h 2mn
Overall bit rate : 5 334 Kbps
Encoded date : UTC 2016-04-14 16:10:39
Writing application : mkvmerge v6.5.0 ('Isn't she lovely') built on Oct 20 2013 12:50:05
Writing library : libebml v1.3.0 + libmatroska v1.4.1
Video
ID : 1
Format : AVC
Format/Info : Advanced Video Codec
Format profile : High@L4.1
Format settings, CABAC : Yes
Format settings, ReFrames : 6 frames
Codec ID : V_MPEG4/ISO/AVC
Duration : 2h 2mn
Bit rate : 4 483 Kbps
Width : 1 280 pixels
Height : 692 pixels
Display aspect ratio : 1.85:1
Frame rate mode : Constant
Frame rate : 23.976 fps
Color space : YUV
Chroma subsampling : 4:2:0
Bit depth : 8 bits
Scan type : Progressive
Bits/(Pixel*Frame) : 0.211
Stream size : 3.73 GiB (82%)
Writing library : x264 core 96 r1613 81e75e9
Encoding settings : cabac=1 / ref=6 / deblock=1:-2:-2 / analyse=0x3:0x133 / me=umh / subme=9 / psy=1 / psy_rd=1.00:0.10 / mixed_ref=1 / me_range=24 / chroma_me=1 / trellis=2 / 8x8dct=1 / cqm=0 / deadzone=21,11 / fast_pskip=1 / chroma_qp_offset=-3 / threads=12 / sliced_threads=0 / nr=0 / decimate=0 / interlaced=0 / constrained_intra=0 / bframes=6 / b_pyramid=2 / b_adapt=2 / b_bias=0 / direct=3 / weightb=1 / weightp=2 / keyint=250 / keyint_min=25 / scenecut=40 / intra_refresh=0 / rc_lookahead=60 / rc=2pass / mbtree=1 / bitrate=4483 / ratetol=1.0 / qcomp=0.60 / qpmin=10 / qpmax=51 / qpstep=4 / cplxblur=20.0 / qblur=0.5 / ip_ratio=1.40 / aq=1:1.00
Default : Yes
Forced : No
Audio #1
ID : 2
Format : MPEG Audio
Format version : Version 1
Format profile : Layer 3
Codec ID : A_MPEG/L3
Codec ID/Hint : MP3
Duration : 2h 2mn
Bit rate mode : Constant
Bit rate : 224 Kbps
Channel(s) : 2 channels
Sampling rate : 48.0 KHz
Compression mode : Lossy
Stream size : 196 MiB (4%)
Title : MPEG/L3
Language : Russian
Default : Yes
Forced : No
Audio #2
ID : 3
Format : AC-3
Format/Info : Audio Coding 3
Mode extension : CM (complete main)
Format settings, Endianness : Big
Codec ID : A_AC3
Duration : 2h 2mn
Bit rate mode : Constant
Bit rate : 640 Kbps
Channel(s) : 6 channels
Channel positions : Front: L C R, Side: L R, LFE
Sampling rate : 48.0 KHz
Compression mode : Lossy
Stream size : 560 MiB (12%)
Title : AC3
Language : Japanese
Default : No
Forced : No
Text #1
ID : 4
Format : UTF-8
Codec ID : S_TEXT/UTF8
Codec ID/Info : UTF-8 Plain Text
Title : Srt
Language : Russian
Default : No
Forced : No
Text #2
ID : 5
Format : UTF-8
Codec ID : S_TEXT/UTF8
Codec ID/Info : UTF-8 Plain Text
Title : Srt
Language : English
Default : No
Forced : No

Скриншоты

[Профиль] [ЛС]
Показать сообщения:    
Ответить на тему

Текущее время: 23-Фев 00:05

Часовой пояс: UTC + 3



Вы не можете начинать темы
Вы не можете отвечать на сообщения
Вы не можете редактировать свои сообщения
Вы не можете удалять свои сообщения
Вы не можете голосовать в опросах
Вы не можете прикреплять файлы к сообщениям
Вы можете скачивать файлы