BitTorrent клиенты



Адвокат / The Attorney / Byeon-ho-in (Ян Ву Сок / Yang Woo-Seok) [2013, Южная Корея, драма, BDRip 720p] DVO (Ворон и Nastia) + Sub Rus, Eng + Original Kor

Ответить на тему
 
Автор Сообщение

Keeper ®

Пол: Не указан

Стаж: 1 год

Сообщений: 499

Создавать темы 07-Фев-2018 20:47

[Цитировать]

Адвокат / The Attorney / Byeon-ho-in
Страна: Южная Корея
Студия: WithUs Films
Жанр: драма
Год выпуска: 2013
Продолжительность: 02:07:21
Перевод: Любительский (двухголосый закадровый) Ворон и Nastia
Субтитры: русские (хардсаб на надписи), русские (Группа Им Шивана), английские
Оригинальная аудиодорожка: корейский
Режиссер: Ян Ву Сок / Yang Woo-Seok
В ролях: Сон Кан Хо, Ким Ён Э, О Даль Су, Квак До Вон, Им Ши Ван, Чон Вон Чжун, Сон Ён Чан, Чо Мин Ки, Ли Сон Мин, Ча Кван Су, Ли Хан На и др.
Описание: Эта история произошла в Южной Корее в начале 80-х годов. Сон У Сок в то время работал адвокатом в Пусане и специализировался в области налогового права. Единственной целью в его жизни были деньги и именно они послужили причиной того, что он стал изучать юриспруденцию. Чтобы заполучить себе как можно больше клиентов он даже раздавал в общественных местах и на улице свои визитные карточки. Но, однажды, меркантильный адвокат случайно знакомится со студентом-активистом Чжин У, и эта встреча коренным образом меняет его взгляды на окружающий мир и отношение к жизни.
Чжин У стечением обстоятельств оказывается в тюрьме и подвергается там очень жестокому обращению и пыткам. Сон У Сок решает стать его защитником в суде…
II Сэмпл II IMDB II
Релиз группа:

Тип релиза: BDRip 720p
Контейнер: MKV
Видео: AVC / 1280x692 / 1.85:1 / 23.976fps / Bit rate 6000Kbps / High@L4.1
Аудио 1: AC3 / 48.0 KHz / 6ch. / 448kbps / rus / DVO / Ворон и Nastia
Аудио 2: AC3 / 48.0 KHz / 6ch. / 640kbps / kor
Формат субтитров: softsub (SRT / ASS)

MediaInfo

Общее
Уникальный идентификатор : 230092860355401764400530753740143538334 (0xAD1A45E1AD7B7D1195AB6486CB37309E)
Полное имя : E:\!_HD\temp\The.Attorney.2013.BDRip.720p_by_vedigo.mkv
Формат : Matroska
Версия формата : Version 4 / Version 2
Размер файла : 6,30 Гбайт
Продолжительность : 2 ч. 7 м.
Общий поток : 7088 Кбит/сек
Название фильма : The.Attorney.2013.BDRip.720p_by_vedigo
Дата кодирования : UTC 2016-04-14 00:21:05
Программа кодирования : mkvmerge v9.0.1 ('Obstacles') 64bit
Библиотека кодирования : libebml v1.3.3 + libmatroska v1.4.4
Видео
Идентификатор : 1
Формат : AVC
Формат/Информация : Advanced Video Codec
Профиль формата : High@L4.1
Параметр CABAC формата : Да
Параметр ReFrames формата : 9 кадров
Идентификатор кодека : V_MPEG4/ISO/AVC
Продолжительность : 2 ч. 7 м.
Битрейт : 6000 Кбит/сек
Ширина : 1280 пикселей
Высота : 692 пикселя
Соотношение сторон : 1,85:1
Режим частоты кадров : Постоянный
Частота кадров : 23,976 (24000/1001) кадра/сек
Цветовое пространство : YUV
Субдискретизация насыщенности : 4:2:0
Битовая глубина : 8 бит
Тип развёртки : Прогрессивная
Бит/(Пиксели*Кадры) : 0.283
Размер потока : 5,33 Гбайт (85%)
Заголовок : The.Attorney.2013.BDRip.720p_by_vedigo
Библиотека кодирования : x264 core 148 r2665 a01e339
Настройки программы : cabac=1 / ref=9 / deblock=1:-3:-3 / analyse=0x3:0x133 / me=umh / subme=11 / psy=0 / mixed_ref=1 / me_range=48 / chroma_me=1 / trellis=2 / 8x8dct=1 / cqm=0 / deadzone=21,11 / fast_pskip=0 / chroma_qp_offset=0 / threads=12 / lookahead_threads=3 / sliced_threads=0 / nr=0 / decimate=1 / interlaced=0 / bluray_compat=0 / constrained_intra=0 / bframes=10 / b_pyramid=2 / b_adapt=2 / b_bias=0 / direct=3 / weightb=1 / open_gop=0 / weightp=2 / keyint=250 / keyint_min=23 / scenecut=40 / intra_refresh=0 / rc_lookahead=40 / rc=2pass / mbtree=0 / bitrate=6000 / ratetol=1.0 / qcomp=0.60 / qpmin=0 / qpmax=69 / qpstep=4 / cplxblur=20.0 / qblur=0.5 / vbv_maxrate=50000 / vbv_bufsize=62500 / nal_hrd=none / filler=0 / ip_ratio=1.40 / pb_ratio=1.30 / aq=1:0.90
Default : Да
Forced : Нет
Аудио #1
Идентификатор : 2
Формат : AC-3
Формат/Информация : Audio Coding 3
Расширение режима : CM (complete main)
Параметр Endianness формата : Big
Идентификатор кодека : A_AC3
Продолжительность : 2 ч. 7 м.
Вид битрейта : Постоянный
Битрейт : 448 Кбит/сек
Каналы : 6 каналов
Расположение каналов : Front: L C R, Side: L R, LFE
Частота : 48,0 КГц
Частота кадров : 31,250 кадров/сек (1536 spf)
Метод сжатия : С потерями
Размер потока : 408 Мбайт (6%)
Заголовок : DVO @ Ворон и Nastia
Язык : Russian
Default : Да
Forced : Нет
Аудио #2
Идентификатор : 3
Формат : AC-3
Формат/Информация : Audio Coding 3
Расширение режима : CM (complete main)
Параметр Endianness формата : Big
Идентификатор кодека : A_AC3
Продолжительность : 2 ч. 7 м.
Вид битрейта : Постоянный
Битрейт : 640 Кбит/сек
Каналы : 6 каналов
Расположение каналов : Front: L C R, Side: L R, LFE
Частота : 48,0 КГц
Частота кадров : 31,250 кадров/сек (1536 spf)
Метод сжатия : С потерями
Размер потока : 583 Мбайт (9%)
Заголовок : original
Язык : Korean
Default : Нет
Forced : Нет
Текст #1
Идентификатор : 4
Формат : ASS
Идентификатор кодека : S_TEXT/ASS
Идентификатор кодека/Информация : Advanced Sub Station Alpha
Продолжительность : 2 ч. 4 м.
Битрейт : 2 бит/сек
Count of elements : 21
Метод сжатия : Без потерь
Размер потока : 2,00 Кбайт (0%)
Заголовок : subtitle rus @ Надписи
Язык : Russian
Default : Да
Forced : Нет
Текст #2
Идентификатор : 5
Формат : ASS
Идентификатор кодека : S_TEXT/ASS
Идентификатор кодека/Информация : Advanced Sub Station Alpha
Продолжительность : 2 ч. 5 м.
Битрейт : 165 бит/сек
Count of elements : 1921
Метод сжатия : Без потерь
Размер потока : 152 Кбайт (0%)
Заголовок : subtitle rus @ Группа Им Шивана
Язык : Russian
Default : Нет
Forced : Нет
Текст #3
Идентификатор : 6
Формат : UTF-8
Идентификатор кодека : S_TEXT/UTF8
Идентификатор кодека/Информация : UTF-8 Plain Text
Продолжительность : 2 ч. 4 м.
Битрейт : 55 бит/сек
Count of elements : 2006
Размер потока : 50,2 Кбайт (0%)
Заголовок : subtitle eng
Язык : English
Default : Нет
Forced : Нет
Меню
00:00:00.000 : en:00:00:00.000
00:06:02.320 : en:00:06:02.320
00:11:57.634 : en:00:11:57.634
00:22:32.685 : en:00:22:32.685
00:32:34.035 : en:00:32:34.035
00:41:08.758 : en:00:41:08.758
00:49:07.194 : en:00:49:07.194
00:59:28.356 : en:00:59:28.356
01:08:59.010 : en:01:08:59.010
01:20:10.222 : en:01:20:10.222
01:24:31.608 : en:01:24:31.608
01:36:10.765 : en:01:36:10.765
01:44:18.627 : en:01:44:18.627
01:53:13.203 : en:01:53:13.203
01:59:39.589 : en:01:59:39.589
02:05:10.086 : en:02:05:10.086

Скриншоты


Сравнение с исходником





x264 info

x264 [info]: using SAR=1/1
x264 [info]: using cpu capabilities: MMX2 SSE2Fast SSSE3 SSE4.2 AVX
x264 [info]: profile High, level 4.1
x264 [info]: frame I:1397 Avg QP:10.90 size:145313
x264 [info]: frame P:39205 Avg QP:12.85 size: 55447
x264 [info]: frame B:142596 Avg QP:14.44 size: 23503
x264 [info]: consecutive B-frames: 2.3% 3.6% 8.6% 14.3% 16.9% 37.3% 6.8% 1.9% 3.8% 1.7% 2.7%
x264 [info]: mb I I16..4: 27.2% 30.0% 42.7%
x264 [info]: mb P I16..4: 11.0% 12.1% 17.3% P16..4: 22.2% 21.2% 10.8% 1.9% 0.1% skip: 3.4%
x264 [info]: mb B I16..4: 4.5% 3.5% 5.1% B16..8: 24.4% 23.3% 5.5% direct: 8.7% skip:25.0% L0:47.9% L1:33.5% BI:18.6%
x264 [info]: 8x8 transform intra:28.3% inter:25.8%
x264 [info]: direct mvs spatial:98.3% temporal:1.7%
x264 [info]: coded y,uvDC,uvAC intra: 75.0% 70.1% 48.1% inter: 36.6% 24.9% 2.4%
x264 [info]: i16 v,h,dc,p: 41% 8% 33% 18%
x264 [info]: i8 v,h,dc,ddl,ddr,vr,hd,vl,hu: 27% 17% 25% 4% 5% 6% 5% 6% 6%
x264 [info]: i4 v,h,dc,ddl,ddr,vr,hd,vl,hu: 30% 14% 28% 4% 5% 6% 5% 4% 4%
x264 [info]: i8c dc,h,v,p: 30% 37% 24% 9%
x264 [info]: Weighted P-Frames: Y:1.4% UV:0.4%
x264 [info]: ref P L0: 38.8% 8.3% 21.3% 8.0% 7.6% 5.0% 5.0% 2.6% 2.9% 0.3% 0.0%
x264 [info]: ref B L0: 62.2% 15.7% 8.5% 4.9% 3.6% 3.1% 1.6% 0.5%
x264 [info]: ref B L1: 91.2% 8.8%
x264 [info]: kb/s:5997.52
[Профиль] [ЛС]
Показать сообщения:    
Ответить на тему

Текущее время: 20-Фев 06:48

Часовой пояс: UTC + 3



Вы не можете начинать темы
Вы не можете отвечать на сообщения
Вы не можете редактировать свои сообщения
Вы не можете удалять свои сообщения
Вы не можете голосовать в опросах
Вы не можете прикреплять файлы к сообщениям
Вы можете скачивать файлы