BitTorrent клиенты



Из Вегаса в Макао 2 / From Vegas to Macau II / Ao Men feng yun 2 / Du cheng feng yun II (Цзин Вон / Jing Wong) [2015, Китай, Гонконг, комедия, боевик, BDRemux 1080p] VO (den904) + Sub Eng + Original Chi

Ответить на тему
 
Автор Сообщение

Keeper ®

Пол: Не указан

Стаж: 1 год

Сообщений: 499

Создавать темы 07-Фев-2018 20:47

[Цитировать]

Из Вегаса в Макао 2 / From Vegas to Macau II / Ao Men feng yun 2 / Du cheng feng yun II
Страна: Китай, Гонконг
Студия: Bona International Film Group, Media Asia Films, Mega-Vision Pictures (MVP)
Жанр: комедия, боевик
Год выпуска: 2015
Продолжительность: 01:50:14
Перевод: Одноголосый закадровый den904
Субтитры: английские
Оригинальная аудиодорожка: китайский
Режиссер: Цзин Вон / Jing Wong
В ролях: Ник Чунг, Чоу Юнь-Фат, Дэниэл Гарсиа, Энди Лау, Карина Лау, Мэтт Тотти, Шон Юе, Светлана Завьялова и др.
Описание: Вторая часть искрометной комедии, где главные действующие лица - заядлые и азартные мастера карточных игр.
II Сэмпл II IMDB II
Релиз группа:

Тип релиза: BDRemux 1080p
Контейнер: MKV
Видео: AVC / 1920x1080 / 16:9 / 24.0fps / Bit rate 18300Kbps / High@L4.1
Аудио 1: AC3 / 48.0 KHz / 2ch. / 192kbps / rus / VO / den904
Аудио 2: DTS-HD MA / 48.0 KHz / 8ch. / 3072kbps / 16bit (Core DTS 48.0 KHz / 6ch. / 1509kbps / 16bit) Cantones
Аудио 3: DTS-HD MA / 48.0 KHz / 8ch. / 3072kbps / 16bit (Core DTS 48.0 KHz / 6ch. / 1509kbps / 16bit) Mandarin
Формат субтитров: softsub (SRT)

MediaInfo

Общее
Уникальный идентификатор : 207927494231943129784039093294056391425 (0x9C6D60F51F52D8C2B334F1818934C301)
Полное имя : E:\torrent\_HD\temp\From.Vegas.to.Macau.II.2015.BDRemux_by_vedigo.mkv
Формат : Matroska
Версия формата : Version 4 / Version 2
Размер файла : 19,0 Гбайт
Продолжительность : 1 ч. 50 м.
Режим общего битрейта : Переменный
Общий поток : 24,6 Мбит/сек
Название фильма : From.Vegas.to.Macau.II.2015.BDRemux_by_vedigo
Дата кодирования : UTC 2016-04-01 10:38:41
Программа кодирования : mkvmerge v8.9.0 ('Father Daughter') 64bit
Библиотека кодирования : libebml v1.3.3 + libmatroska v1.4.4
Видео
Идентификатор : 1
Формат : AVC
Формат/Информация : Advanced Video Codec
Профиль формата : High@L4.1
Параметр CABAC формата : Да
Параметр ReFrames формата : 4 кадра
Идентификатор кодека : V_MPEG4/ISO/AVC
Продолжительность : 1 ч. 50 м.
Вид битрейта : Переменный
Битрейт : 18,3 Мбит/сек
Максимальный битрейт : 29,0 Мбит/сек
Ширина : 1920 пикселей
Высота : 1080 пикселей
Соотношение сторон : 16:9
Режим частоты кадров : Постоянный
Частота кадров : 24,000 кадра/сек
Стандарт вещания : NTSC
Цветовое пространство : YUV
Субдискретизация насыщенности : 4:2:0
Битовая глубина : 8 бит
Тип развёртки : Прогрессивная
Бит/(Пиксели*Кадры) : 0.368
Размер потока : 14,1 Гбайт (74%)
Заголовок : From.Vegas.to.Macau.II.2015.BDRemux_by_vedigo
Default : Да
Forced : Нет
Цветовой диапазон : Limited
Основные цвета : BT.709
Характеристики трансфера : BT.709
Коэффициенты матрицы : BT.709
Аудио #1
Идентификатор : 2
Формат : AC-3
Формат/Информация : Audio Coding 3
Расширение режима : CM (complete main)
Параметр Endianness формата : Big
Идентификатор кодека : A_AC3
Продолжительность : 1 ч. 50 м.
Вид битрейта : Постоянный
Битрейт : 192 Кбит/сек
Каналы : 2 канала
Расположение каналов : Front: L R
Частота : 48,0 КГц
Частота кадров : 31,250 кадров/сек (1536 spf)
Метод сжатия : С потерями
Размер потока : 151 Мбайт (1%)
Заголовок : VO @ den904
Язык : Russian
Default : Да
Forced : Нет
Аудио #2
Идентификатор : 3
Формат : DTS
Формат/Информация : Digital Theater Systems
Профиль формата : MA / Core
Режим : 16
Параметр Endianness формата : Big
Идентификатор кодека : A_DTS
Продолжительность : 1 ч. 50 м.
Вид битрейта : Переменный / Постоянный
Битрейт : 3072 Кбит/сек / 1509 Кбит/сек
Каналы : 8 каналов / 6 каналов
Расположение каналов : Front: L C R, Side: L R, Back: L R, LFE / Front: L C R, Side: L R, LFE
Частота : 48,0 КГц
Частота кадров : 93,750 кадра/сек (512 spf)
Битовая глубина : 16 бит
Метод сжатия : Без потерь / Lossy
Размер потока : 2,35 Гбайт (12%)
Заголовок : Cantones
Язык : Chinese
Default : Нет
Forced : Нет
Аудио #3
Идентификатор : 4
Формат : DTS
Формат/Информация : Digital Theater Systems
Профиль формата : MA / Core
Режим : 16
Параметр Endianness формата : Big
Идентификатор кодека : A_DTS
Продолжительность : 1 ч. 50 м.
Вид битрейта : Переменный / Постоянный
Битрейт : 3072 Кбит/сек / 1509 Кбит/сек
Каналы : 8 каналов / 6 каналов
Расположение каналов : Front: L C R, Side: L R, Back: L R, LFE / Front: L C R, Side: L R, LFE
Частота : 48,0 КГц
Частота кадров : 93,750 кадра/сек (512 spf)
Битовая глубина : 16 бит
Метод сжатия : Без потерь / Lossy
Размер потока : 2,34 Гбайт (12%)
Заголовок : Mandarin
Язык : Chinese
Default : Нет
Forced : Нет
Текст
Идентификатор : 5
Формат : UTF-8
Идентификатор кодека : S_TEXT/UTF8
Идентификатор кодека/Информация : UTF-8 Plain Text
Продолжительность : 1 ч. 45 м.
Битрейт : 44 бит/сек
Count of elements : 1571
Размер потока : 34,2 Кбайт (0%)
Заголовок : subtitle eng
Язык : English
Default : Нет
Forced : Нет
Меню
00:00:00.000 : :00:00:00.000
00:10:34.958 : :00:10:34.958
00:19:31.083 : :00:19:31.083
00:27:38.583 : :00:27:38.583
00:36:14.458 : :00:36:14.458
00:46:01.958 : :00:46:01.958
00:55:26.958 : :00:55:26.958
01:03:06.167 : :01:03:06.167
01:12:28.792 : :01:12:28.792
01:23:58.542 : :01:23:58.542
01:30:17.000 : :01:30:17.000
01:38:54.958 : :01:38:54.958

Скриншоты


[Профиль] [ЛС]
Показать сообщения:    
Ответить на тему

Текущее время: 19-Фев 16:23

Часовой пояс: UTC + 3



Вы не можете начинать темы
Вы не можете отвечать на сообщения
Вы не можете редактировать свои сообщения
Вы не можете удалять свои сообщения
Вы не можете голосовать в опросах
Вы не можете прикреплять файлы к сообщениям
Вы можете скачивать файлы