BitTorrent клиенты



Жажда / Мир Канако / Kawaki / The World of Kanako (Тэцуя Накасима / Tetsuya Nakashima) [2014, Япония, драма, криминал, детектив, BDRemux 1080p] DVO (2D) + Sub Rus, Eng + Original Jap

Ответить на тему
 
Автор Сообщение

Keeper ®

Пол: Не указан

Стаж: 1 год

Сообщений: 499

Создавать темы 07-Фев-2018 20:47

[Цитировать]

Жажда / Мир Канако / Kawaki / The World of Kanako
Страна: Япония
Студия: GAGA, GyaO, Licri
Жанр: драма, криминал, детектив
Год выпуска: 2014
Продолжительность: 01:58:56
Перевод: Любительский (двухголосый закадровый) DeadSno & den904
Субтитры: русские, английские
Оригинальная аудиодорожка: Японский
Режиссер: Тэцуя Накасима / Tetsuya Nakashima
В ролях: Кодзи Якусё, Nana Komatsu, Сатоси Цумабуки, Дзё Одагири, Фуми Никайдо, Аи Хашимото, Дзюн Кунимура, Hiroya Shimizu, Мики Накатани, Мунэтака Аоки...
Описание: Красавица и умница Канако внезапно исчезает без следа. Отец девочки, бывший детектив Фудзисима Акихиро, чтобы найти свою дочь, начинает тщательное расследование ее жизни. Фудзисима — одинокий человек, собственные действия которого привели к распаду семьи, но, когда он продолжает свое расследование, то сталкивается с серией шокирующих откровений. Оказывается, Канако — далеко не ангел, которого все видели в ней…
II Сэмпл II IMDB II
Релиз группа:

Доп. информация:
За русскую дорогу спасибо Assassin's Creed
Тип релиза: BDRemux 1080p
Контейнер: MKV
Видео: AVC / 1920x1080 / 16:9 / 23.976fps / Bit rate 37700Kbps / High@L4.1
Аудио 1: AC3 / 48.0 KHz / 6ch. / 448kbps / rus / DVO / DeadSno & den904
Аудио 2: DTS-HD MA / 48.0 KHz / 6ch. / 4029kbps / 24bit (DTS Core 48.0 KHz / 6ch. / 1509kbps / 24bit) Jap
Формат субтитров: softsub (SRT)

MediaInfo

Общее
Уникальный идентификатор : 184948974560344351772257415394676680424 (0x8B23E077DCA7F923ADFB4854665BA6E8)
Полное имя : E:\!_HD\temp\The.World.of.Kanako.2014.BDRemux.1080p_by_vedigo.mkv
Формат : Matroska
Версия формата : Version 4 / Version 2
Размер файла : 35,0 Гбайт
Продолжительность : 1 ч. 58 м.
Режим общего битрейта : Переменный
Общий поток : 42,2 Мбит/сек
Название фильма : The.World.of.Kanako.2014.BDRemux.1080p_by_vedigo
Дата кодирования : UTC 2016-03-30 06:57:11
Программа кодирования : mkvmerge v8.9.0 ('Father Daughter') 64bit
Библиотека кодирования : libebml v1.3.3 + libmatroska v1.4.4
Видео
Идентификатор : 1
Формат : AVC
Формат/Информация : Advanced Video Codec
Профиль формата : High@L4.1
Параметр CABAC формата : Да
Параметр ReFrames формата : 4 кадра
Идентификатор кодека : V_MPEG4/ISO/AVC
Продолжительность : 1 ч. 58 м.
Вид битрейта : Переменный
Битрейт : 37,7 Мбит/сек
Максимальный битрейт : 40,0 Мбит/сек
Ширина : 1920 пикселей
Высота : 1080 пикселей
Соотношение сторон : 16:9
Режим частоты кадров : Постоянный
Частота кадров : 23,976 (24000/1001) кадра/сек
Цветовое пространство : YUV
Субдискретизация насыщенности : 4:2:0
Битовая глубина : 8 бит
Тип развёртки : Прогрессивная
Бит/(Пиксели*Кадры) : 0.758
Размер потока : 31,3 Гбайт (89%)
Заголовок : The.World.of.Kanako.2014.BDRemux.1080p_by_vedigo
Default : Да
Forced : Нет
Аудио #1
Идентификатор : 2
Формат : AC-3
Формат/Информация : Audio Coding 3
Расширение режима : CM (complete main)
Параметр Endianness формата : Big
Идентификатор кодека : A_AC3
Продолжительность : 1 ч. 58 м.
Вид битрейта : Постоянный
Битрейт : 448 Кбит/сек
Каналы : 6 каналов
Расположение каналов : Front: L C R, Side: L R, LFE
Частота : 48,0 КГц
Частота кадров : 31,250 кадров/сек (1536 spf)
Метод сжатия : С потерями
Размер потока : 381 Мбайт (1%)
Заголовок : DVO @ 2D
Язык : Russian
Default : Да
Forced : Нет
Аудио #2
Идентификатор : 3
Формат : DTS
Формат/Информация : Digital Theater Systems
Профиль формата : MA / Core
Режим : 16
Параметр Endianness формата : Big
Идентификатор кодека : A_DTS
Продолжительность : 1 ч. 58 м.
Вид битрейта : Переменный / Постоянный
Битрейт : 4029 Кбит/сек / 1509 Кбит/сек
Каналы : 6 каналов
Расположение каналов : Front: L C R, Side: L R, LFE
Частота : 48,0 КГц
Частота кадров : 93,750 кадра/сек (512 spf)
Битовая глубина : 24 бит
Метод сжатия : Без потерь / Lossy
Размер потока : 3,35 Гбайт (10%)
Заголовок : original
Язык : Japanese
Default : Нет
Forced : Нет
Текст #1
Идентификатор : 4
Формат : UTF-8
Идентификатор кодека : S_TEXT/UTF8
Идентификатор кодека/Информация : UTF-8 Plain Text
Продолжительность : 1 ч. 55 м.
Битрейт : 56 бит/сек
Count of elements : 1266
Размер потока : 48,1 Кбайт (0%)
Заголовок : subtitle rus
Язык : Russian
Default : Нет
Forced : Нет
Текст #2
Идентификатор : 5
Формат : UTF-8
Идентификатор кодека : S_TEXT/UTF8
Идентификатор кодека/Информация : UTF-8 Plain Text
Продолжительность : 1 ч. 55 м.
Битрейт : 35 бит/сек
Count of elements : 1269
Размер потока : 29,9 Кбайт (0%)
Заголовок : subtitle eng
Язык : English
Default : Нет
Forced : Нет

Скриншоты


[Профиль] [ЛС]
Показать сообщения:    
Ответить на тему

Текущее время: 20-Фев 06:48

Часовой пояс: UTC + 3



Вы не можете начинать темы
Вы не можете отвечать на сообщения
Вы не можете редактировать свои сообщения
Вы не можете удалять свои сообщения
Вы не можете голосовать в опросах
Вы не можете прикреплять файлы к сообщениям
Вы можете скачивать файлы