BitTorrent клиенты



Фехтовальщик 3: Красный Восток / Swordsman III: The East Is Red / Dong Fang Bu Bai: Feng yun zai qi (Сиу-Тунг Чинг / Siu-Tung Ching, Рэймонд Ли / Raymond Lee) [1993, Гонконг, боевик, фэнтези, BDRip 720p] VO + Original Chi

Ответить на тему
 
Автор Сообщение

Keeper ®

Пол: Не указан

Стаж: 1 год

Сообщений: 499

Создавать темы 07-Фев-2018 20:47

[Цитировать]

Фехтовальщик 3: Красный Восток / Swordsman III:The East Is Red / Dong Fang Bu Bai: Feng yun zai qi
Страна: Гонконг
Жанр: боевик, мелодрама, история
Год выпуска: 1993
Продолжительность: 01:37:10
Перевод: Одноголосый (закадровый) (Jet)
Субтитры: нет
Оригинальная аудиодорожка: Китайская
Режиссер: Сиу-Тунг Чинг / Siu-Tung Ching, Рэймонд Ли / Raymond Lee
В ролях: Бриджит Лин, Эдди Ко, Шун Лау, Уэйз Ли, Джин Ванг, Джои Ван, Ши-Кван Йен, Фенние Юэнь, Кин-Тан Юэнь, Ю Рон Гуан
Описание: После смерти Непобедимой Азии в конце Swordsman II, начали появляться самозванцы. Они желают свергнуть императора и завоевать мир. Офицер Ку, посланный расследовать смерть Непобедимой Азии, узнаёт что она не мертва. А узнав о появлении самозванцев, Азия хочет уничтожить их всех.
Сэмпл: http://multi-up.com/1095214
Источник: KOR 2Disc Blu-ray 1080p AVC DTS-HD MA 2 0-CMCT
Рип от Wiki
Качество видео: BDRip
Формат видео: MKV
Видео: 1280x720, 24.000 fps, AVC MPEG-4 ~10000 kbps avg, 0.20 bit/pixel
Аудио 1: 48 kHz, AC3 Dolby Digital, 2/0 (L,R) ch, ~192.00 kbps avg (Russian)
Аудио 2: 48 kHz, AC3 Dolby Digital, 2/0 (L,R) ch, ~256.00 kbps avg (Chinese)
Аудио 3: 48 kHz, AC3 Dolby Digital, 2/0 (L,R) ch, ~448.00 kbps avg (Chinese)

MediaInfo

General
Unique ID : 248954286491514240902724553899896065343 (0xBB4AD9FCCE38B15B9F7358D51A45CD3F)
Complete name : Swordsman.2.1992.720p.BluRay.x264.mkv
Format : Matroska
Format version : Version 4 / Version 2
File size : 7.39 GiB
Duration : 1h 37mn
Overall bit rate : 10.9 Mbps
Movie name : Swordsman III: The East is Red (1993)
Encoded date : UTC 2016-03-29 20:13:51
Writing application : mkvmerge v9.0.0 ('Power to progress') 64bit
Writing library : libebml v1.3.3 + libmatroska v1.4.4
Video
ID : 1
Format : AVC
Format/Info : Advanced Video Codec
Format profile : High@L4.1
Format settings, CABAC : Yes
Format settings, ReFrames : 9 frames
Codec ID : V_MPEG4/ISO/AVC
Duration : 1h 37mn
Bit rate : 10 000 Kbps
Width : 1 280 pixels
Height : 720 pixels
Display aspect ratio : 16:9
Frame rate mode : Constant
Frame rate : 24.000 fps
Color space : YUV
Chroma subsampling : 4:2:0
Bit depth : 8 bits
Scan type : Progressive
Bits/(Pixel*Frame) : 0.452
Stream size : 6.78 GiB (92%)
Writing library : x264 core 130 r2273 b3065e6
Encoding settings : cabac=1 / ref=9 / deblock=1:-3:-3 / analyse=0x3:0x113 / me=umh / subme=11 / psy=1 / psy_rd=0.95:0.15 / mixed_ref=1 / me_range=32 / chroma_me=1 / trellis=2 / 8x8dct=1 / cqm=0 / deadzone=21,11 / fast_pskip=0 / chroma_qp_offset=-5 / threads=12 / lookahead_threads=2 / sliced_threads=0 / nr=0 / decimate=0 / interlaced=0 / bluray_compat=0 / constrained_intra=0 / bframes=8 / b_pyramid=2 / b_adapt=2 / b_bias=0 / direct=3 / weightb=1 / open_gop=0 / weightp=2 / keyint=250 / keyint_min=24 / scenecut=40 / intra_refresh=0 / rc_lookahead=80 / rc=2pass / mbtree=1 / bitrate=10000 / ratetol=1.0 / qcomp=0.60 / qpmin=0 / qpmax=69 / qpstep=4 / cplxblur=20.0 / qblur=0.5 / ip_ratio=1.40 / aq=1:0.65
Language : English
Default : Yes
Forced : No
Audio #1
ID : 2
Format : AC-3
Format/Info : Audio Coding 3
Mode extension : CM (complete main)
Format settings, Endianness : Big
Codec ID : A_AC3
Duration : 1h 37mn
Bit rate mode : Constant
Bit rate : 192 Kbps
Channel(s) : 2 channels
Channel positions : Front: L R
Sampling rate : 48.0 KHz
Frame rate : 31.250 fps (1536 spf)
Compression mode : Lossy
Stream size : 133 MiB (2%)
Title : VO, Jet
Language : Russian
Default : No
Forced : No
Audio #2
ID : 3
Format : AC-3
Format/Info : Audio Coding 3
Mode extension : CM (complete main)
Format settings, Endianness : Big
Codec ID : A_AC3
Duration : 1h 37mn
Bit rate mode : Constant
Bit rate : 256 Kbps
Channel(s) : 2 channels
Channel positions : Front: L R
Sampling rate : 48.0 KHz
Frame rate : 31.250 fps (1536 spf)
Compression mode : Lossy
Stream size : 178 MiB (2%)
Title : 国语
Language : Chinese
Default : No
Forced : No
Audio #3
ID : 4
Format : AC-3
Format/Info : Audio Coding 3
Mode extension : CM (complete main)
Format settings, Endianness : Big
Codec ID : A_AC3
Duration : 1h 37mn
Bit rate mode : Constant
Bit rate : 448 Kbps
Channel(s) : 2 channels
Channel positions : Front: L R
Sampling rate : 48.0 KHz
Frame rate : 31.250 fps (1536 spf)
Compression mode : Lossy
Stream size : 311 MiB (4%)
Title : 粤语
Language : Chinese
Default : No
Forced : No

Info

ENCODER...................: dong1010
RELEASE DATE..............: 2015-05-28
RELEASE SIZE..............: 7.26 GiB
SOURCE....................: KOR 2Disc Blu-ray 1080p AVC DTS-HD MA 2 0-CMCT
.Media.Info
RUNTIME...................: 1h:37m:10s
VIDEO CODEC...............: x264: 2pass-L4.1 @ 10000 Kbps
RESOLUTION................: 1280x720 (1.78:1)
FRAME RATE................: 24.000 fps
AUDiO CODEC...............: Mandarin DD2.0 @ 256 Kbps
AUDiO CODEC...............: Cantonese DD2.0 @ 448 Kbps
SUBTiTLES.................: S_TEXT/ASS(chs)
.x264.Info
x264 [info]: profile High, level 4.1
x264 [info]: frame I:1070 Avg QP:14.55 size:145975
x264 [info]: frame P:37214 Avg QP:18.23 size: 74424
x264 [info]: frame B:116666 Avg QP:21.51 size: 43351
x264 [info]: consecutive B-frames: 3.1% 4.0% 9.3% 26.3% 17.2% 35.2% 3.4% 1.2% 0.6%

Скриншоты

[Профиль] [ЛС]
Показать сообщения:    
Ответить на тему

Текущее время: 21-Фев 23:39

Часовой пояс: UTC + 3



Вы не можете начинать темы
Вы не можете отвечать на сообщения
Вы не можете редактировать свои сообщения
Вы не можете удалять свои сообщения
Вы не можете голосовать в опросах
Вы не можете прикреплять файлы к сообщениям
Вы можете скачивать файлы