Статистика раздачи
Размер:  1,48 GB   |    Зарегистрирован:  6 месяцев 3 дня   |    Скачан:  0 раз

Полного источника не было: Никогда

 
   
 
 

DR_KTO ®

Пол:
Не указан
Стаж:
6 месяцев 4 дня
Сообщений:
105

Звездный час
Год выпуска: 1999-2000
Страна: Россия
Жанр: детская интеллектуальная игра
Продолжительность: 1 выпуск ~ 26 минут
Перевод: Не требуется
Русские субтитры: нет
Релиз собственный
Телеканал: Время (ОРТ)
Описание: Звёздный час — детская телепередача, выходившая в эфир обычно, по понедельникам на ОРТ с 19 октября 1992 года по 16 января 2002 года. Проводилась в формате интеллектуальной игры. Поначалу с 19 октября 1992 года телеигра выходила вечером в 19.00, с ноября в 18.30, с 2 октября 1995 года выходила в 16.00
Изначально студия телеигры состояла из следующего: на серой стене были разноцветные фигурки такого типа, также кроме фигурок использовались столы игроков с цифровыми табличками, которые в первой половине 1990-х были белыми, с красной стрелкой, в 1995-96 годах — состояли из 6 цветов — фиолетовый, бордовый, розовый, оранжевый, зелёный и жёлтый. Осенью 1996 года и в 1999 году студия два раза подвергалась серьёзным изменениям. Студия с 1999 года выглядела красочной и цветной.
С 2006 по 2007 год старые выпуски интеллектуальной телеигры с апреля 1993 по 1995 год повторялись на канале «Ретро ТВ», а выпуски с осени 1996 по декабрь 2001 год повторялись на канале «Теленяня» до весны 2007 года.
Доп. информация: Самая полная раздача - выпуски 1994-2000 годов
качество: SATRip
формат: AVI
Видео: 720x544 (1.32:1), 25 fps, XviD MPEG-4 ~1488 kbps avg, 0.15 bit/pixel
Аудио: 48 kHz, MPEG Layer 3, 2 ch, ~128.00 kbps avg

MediaInfo

Формат : AVI
Формат/Информация : Audio Video Interleave
Размер файла : 303 Мбайт
Продолжительность : 26 м.
Общий поток : 1626 Кбит/сек
Библиотека кодирования : VirtualDub build 32842/release
Правообладатель : SATRip by Fakhrey
Примечание : rutracker.org
Видео
Идентификатор : 0
Формат : MPEG-4 Visual
Профиль формата : Advanced Simple@L5
Параметр BVOP формата : 2
Параметр QPel формата : Нет
Параметр GMC формата : Без точки перехода
Параметр матрицы формата : Default (H.263)
Идентификатор кодека : XVID
Идентификатор кодека/Подсказка : XviD
Продолжительность : 26 м.
Битрейт : 1489 Кбит/сек
Ширина : 720 пикселей
Высота : 544 пикселя
Соотношение сторон : 4:3
Частота кадров : 25,000 кадров/сек
Цветовое пространство : YUV
Субдискретизация насыщенности : 4:2:0
Битовая глубина : 8 бит
Тип развёртки : Прогрессивная
Метод сжатия : С потерями
Бит/(Пиксели*Кадры) : 0.152
Размер потока : 277 Мбайт (92%)
Библиотека кодирования : XviD 64
Аудио
Идентификатор : 1
Формат : MPEG Audio
Версия формата : Version 1
Профиль формата : Layer 3
Режим : Joint stereo
Расширение режима : MS Stereo
Идентификатор кодека : 55
Идентификатор кодека/Подсказка : MP3
Продолжительность : 26 м.
Вид битрейта : Постоянный
Битрейт : 128 Кбит/сек
Каналы : 2 канала
Частота : 48,0 КГц
Метод сжатия : С потерями
Размер потока : 23,8 Мбайт (8%)
Выравнивание : Разделение по промежуткам
Продолжительность промежутка : 40 мс. (1,00 видеокадр)
Время предзагрузки промежутка : 500 мс.

Выпуски, скриншоты и скринлисты

Выпуск 1 (2000)

Выпуск 2 (2000)

Выпуск 3 (1999)

Выпуск 4 (2000)

Выпуск 5 (2000)

Внимание! Торрент-файл перезалит 07.04.2015! Добавлен выпуск 5! Пожалуйста, обновите торрент-файл!
[www.cybertorrent.ru].t2229.torrent 
Торрент: Зарегистрирован [ 2018-02-16 11:35 ] · FA341C7ED02DA55846F2E9882D858881649C63F8

Скачать .torrent

Скачать

15 KB

Статус: проверено
Скачан: 0 раз
Размер: 1,48 GB
Профиль [ЛС]
Показать сообщения:    

Текущее время: 20-Авг 04:42

Часовой пояс: UTC ± 0



Вы не можете начинать темы
Вы не можете отвечать на сообщения
Вы не можете редактировать свои сообщения
Вы не можете удалять свои сообщения
Вы не можете голосовать в опросах
Вы не можете прикреплять файлы к сообщениям
Вы можете скачивать файлы
Torrents24.ru открытый BitTorrent Torrents24.pl открытый BitTorrent CyberTorrent.ru открытый BitTorrent BtList.ru рейтинг BitTorrent трекеров Яндекс.Метрика