BitTorrent клиенты



Вой / Воющий / Howling / The Killer Wolf / Ha-wool-ling (Ха Ю / Ha Yoo) [2012, Южная Корея, детектив, триллер, драма, BDRemux 1080p] VO + 2x DVO + Sub Rus, Eng + Original Kor

Ответить на тему
 
Автор Сообщение

Keeper ®

Пол: Не указан

Стаж: 1 год

Сообщений: 499

Создавать темы 07-Фев-2018 20:47

[Цитировать]

Вой / Воющий / Howling / The Killer Wolf / Ha-wool-ling
Страна: Южная Корея
Студия: CJ Entertainment, Opus Pictures, Film Poeta
Жанр: детектив, триллер, драма
Год выпуска: 2012
Продолжительность: 01:54:17
Перевод 1: Одноголосый закадровый @PD
Перевод 2: Любительский (двухголосый закадровый) pandora2177 и Олег Варганов
Перевод 3: Любительский (двухголосый закадровый) 2D
Субтитры: русские, английские
Оригинальная аудиодорожка: корейский
Режиссер: Ха Ю / Ha Yoo
В ролях: Кан-Хо Сон (Kang-ho Song), На-Ён И (Na-young Lee), Ин-Хо Чан (In-ho Jang), Ин-Ги Чон (In-gi Jeong), Чжон-Гын Щин (Jeong-geun Sin), Сон-Мин И (Sung-min Lee)
Описание: Сюжет следует за двумя полицейскими, ветераном сыска Сан-Гилом и девушкой-новичком Ын-Ён, переведённой в отдел расследований из патрульной службы.
Сеул. В обгоревшей машине обнаружены останки тела мужчины с глубоким следом собачьего укуса на бедре. Сан-Гилу и Ын-Ён поручают вести расследование преступления. А список жертв, загрызенных собакой, начинает стремительно расти…
II Сэмпл II IMDB II
Релиз группа:

Тип релиза: BDRemux 1080p
Контейнер: MKV
Видео: AVC / 1920x1080 / 16:9 / 23.976fps / Bit rate 29900Kbps / High@L4.1
Аудио 1: DTS / 48.0 KHz / 6ch. / 1509kbps / rus / VO / @PD
Аудио 2: AC3 / 48.0 KHz / 2ch. / 192kbps / rus / DVO / pandora2177 и Олег Варганов
Аудио 3: AC3 / 48.0 KHz / 6ch. / 384kbps / rus / DVO / 2D
Аудио 4: DTS-HD MA / 48.0 KHz / 6ch. / 2539kbps / 24 bit (DTS Core 48.0 KHz / 6ch. / 1509kbps / 24 bit) kor
Формат субтитров: softsub (SRT)

MediaInfo

Общее
Уникальный идентификатор : 213357296743571609699865797576413207600 (0xA0831EE3EA0DA9318C86D977192CDC30)
Полное имя : E:\!_HD\temp\Howling.2012.BDRemux.1080p_by_vedigo.mkv
Формат : Matroska
Версия формата : Version 4 / Version 2
Размер файла : 27,6 Гбайт
Продолжительность : 1 ч. 54 м.
Режим общего битрейта : Переменный
Общий поток : 34,6 Мбит/сек
Название фильма : Howling.2012.BDRemux.1080p_by_vedigo
Дата кодирования : UTC 2016-03-29 02:30:16
Программа кодирования : mkvmerge v8.9.0 ('Father Daughter') 64bit
Библиотека кодирования : libebml v1.3.3 + libmatroska v1.4.4
Видео
Идентификатор : 1
Формат : AVC
Формат/Информация : Advanced Video Codec
Профиль формата : High@L4.1
Параметр CABAC формата : Да
Параметр ReFrames формата : 4 кадра
Идентификатор кодека : V_MPEG4/ISO/AVC
Продолжительность : 1 ч. 54 м.
Вид битрейта : Переменный
Битрейт : 29,9 Мбит/сек
Максимальный битрейт : 35,0 Мбит/сек
Ширина : 1920 пикселей
Высота : 1080 пикселей
Соотношение сторон : 16:9
Режим частоты кадров : Постоянный
Частота кадров : 23,976 (24000/1001) кадра/сек
Цветовое пространство : YUV
Субдискретизация насыщенности : 4:2:0
Битовая глубина : 8 бит
Тип развёртки : Прогрессивная
Бит/(Пиксели*Кадры) : 0.602
Размер потока : 23,9 Гбайт (87%)
Заголовок : Howling.2012.BDRemux.1080p_by_vedigo
Default : Да
Forced : Нет
Аудио #1
Идентификатор : 2
Формат : DTS
Формат/Информация : Digital Theater Systems
Режим : 16
Параметр Endianness формата : Big
Идентификатор кодека : A_DTS
Продолжительность : 1 ч. 54 м.
Вид битрейта : Постоянный
Битрейт : 1510 Кбит/сек
Каналы : 6 каналов
Расположение каналов : Front: L C R, Side: L R, LFE
Частота : 48,0 КГц
Частота кадров : 93,750 кадра/сек (512 spf)
Битовая глубина : 24 бит
Метод сжатия : С потерями
Размер потока : 1,21 Гбайт (4%)
Заголовок : VO @ @PD
Язык : Russian
Default : Да
Forced : Нет
Аудио #2
Идентификатор : 3
Формат : AC-3
Формат/Информация : Audio Coding 3
Расширение режима : CM (complete main)
Параметр Endianness формата : Big
Идентификатор кодека : A_AC3
Продолжительность : 1 ч. 54 м.
Вид битрейта : Постоянный
Битрейт : 192 Кбит/сек
Каналы : 2 канала
Расположение каналов : Front: L R
Частота : 48,0 КГц
Частота кадров : 31,250 кадров/сек (1536 spf)
Метод сжатия : С потерями
Размер потока : 157 Мбайт (1%)
Заголовок : DVO @ pandora2177 и Олег Варганов
Язык : Russian
Default : Нет
Forced : Нет
Аудио #3
Идентификатор : 4
Формат : AC-3
Формат/Информация : Audio Coding 3
Расширение режима : CM (complete main)
Параметр Endianness формата : Big
Идентификатор кодека : A_AC3
Продолжительность : 1 ч. 54 м.
Вид битрейта : Постоянный
Битрейт : 384 Кбит/сек
Каналы : 6 каналов
Расположение каналов : Front: L C R, Side: L R, LFE
Частота : 48,0 КГц
Частота кадров : 31,250 кадров/сек (1536 spf)
Метод сжатия : С потерями
Размер потока : 314 Мбайт (1%)
Заголовок : DVO @ 2D
Язык : Russian
Default : Нет
Forced : Нет
Аудио #4
Идентификатор : 5
Формат : DTS
Формат/Информация : Digital Theater Systems
Профиль формата : MA / Core
Режим : 16
Параметр Endianness формата : Big
Идентификатор кодека : A_DTS
Продолжительность : 1 ч. 54 м.
Вид битрейта : Переменный / Постоянный
Битрейт : 2539 Кбит/сек / 1509 Кбит/сек
Каналы : 6 каналов
Расположение каналов : Front: L C R, Side: L R, LFE
Частота : 48,0 КГц
Частота кадров : 93,750 кадра/сек (512 spf)
Битовая глубина : 24 бит
Метод сжатия : Без потерь / Lossy
Размер потока : 2,03 Гбайт (7%)
Заголовок : original
Язык : Korean
Default : Нет
Forced : Нет
Текст #1
Идентификатор : 6
Формат : UTF-8
Идентификатор кодека : S_TEXT/UTF8
Идентификатор кодека/Информация : UTF-8 Plain Text
Продолжительность : 1 ч. 50 м.
Битрейт : 98 бит/сек
Count of elements : 1512
Размер потока : 79,5 Кбайт (0%)
Заголовок : subtitle rus
Язык : Russian
Default : Нет
Forced : Нет
Текст #2
Идентификатор : 7
Формат : UTF-8
Идентификатор кодека : S_TEXT/UTF8
Идентификатор кодека/Информация : UTF-8 Plain Text
Продолжительность : 1 ч. 49 м.
Битрейт : 52 бит/сек
Count of elements : 1555
Размер потока : 42,6 Кбайт (0%)
Заголовок : subtitle eng
Язык : English
Default : Нет
Forced : Нет
Меню
00:00:00.000 : en:00:00:00.000
00:10:15.448 : en:00:10:15.448
00:20:51.208 : en:00:20:51.208
00:30:27.325 : en:00:30:27.325
00:40:29.677 : en:00:40:29.677
00:50:34.657 : en:00:50:34.657
00:59:46.833 : en:00:59:46.833
01:11:10.975 : en:01:11:10.975
01:20:28.240 : en:01:20:28.240
01:29:59.352 : en:01:29:59.352
01:38:59.350 : en:01:38:59.350
01:50:20.656 : en:01:50:20.656

Скриншоты


[Профиль] [ЛС]
Показать сообщения:    
Ответить на тему

Текущее время: 22-Фев 00:01

Часовой пояс: UTC + 3



Вы не можете начинать темы
Вы не можете отвечать на сообщения
Вы не можете редактировать свои сообщения
Вы не можете удалять свои сообщения
Вы не можете голосовать в опросах
Вы не можете прикреплять файлы к сообщениям
Вы можете скачивать файлы