BitTorrent клиенты



Детектив поневоле / Частный детектив: Начало / Private Investigator: The Beginning / Tam jeong deo bigining / The Accidental Detective (Ким Джон Хун / Kim Jung-Hoon) [2015, Южная Корея, комедия, детектив, HDTV 720p] Sub (Rus) + Original (Kor)

Ответить на тему
 
Автор Сообщение

Keeper ®

Пол: Не указан

Стаж: 1 год

Сообщений: 499

Создавать темы 07-Фев-2018 20:47

[Цитировать]

Частный детектив: Начало / Детектив поневоле
Private Investigator: The Beginning / The Accidental Detective
Tam jeong deo bigining
Страна: Южная Корея
Жанр: комедия, детектив
Год выпуска: 2015
Продолжительность: 02:00:01
Перевод: Субтитры
Субтитры: русские (CopperNiK)
Оригинальная аудиодорожка: корейский
Режиссер: Ким Джон Хун / Kim Jung-Hoon
В ролях: Квон Сан У, Сон Дон Иль, Пак Хэ Джун, Со Ён Хи
Описание:
Дэ Ман очень занятой человек: работа в магазине комиксов, свой веб-сайт и плачущий младенец на руках. Однако он всегда успевает найти время для своего хобби. А оно у него весьма необычное - ему нравится распутывать преступления. Дэ Ман даже постоянно наведывается в полицейский участок, чтобы поделиться со стражами порядка своими мыслями по поводу разных преступлений. Но вот беда, там его никто не воспринимает всерьез. А детектив Но и вовсе терпеть не может. Он постоянно вышвыривает "сыщика-самоучку" из участка.
Однажды друг Дэ Мана, детектив Джун Су, попадает в передрягу. Его обвиняют в убийстве. Чтобы спасти друга и доказать его невиновность Дэ Ману приходится объединиться с тем самым детективом Но.
- Релиз группы: -Тип релиза: HDTV 720p
Контейнер: MKV
Видео: AVC (x264), 1280x720 (16:9) at 23,976 fps, 9834 Кbps, 0.445 bpp
Аудио 1: AC3; 192 Kbps; CBR; 2 ch; 48 khz | Корейский |
Формат субтитров: softsub (ASS/SSA)

Скриншоты || x264 Info || MediaInfo || Notes

MediaInfo

Код:General
Unique ID : 181093422840102985124402232567166701604 (0x883D53178A18D706B36B495D13209024)
Complete name : Частный детектив. Начало.2015.RUSSUB.720p.HDTV.x264.mkv
Format : Matroska
Format version : Version 4 / Version 2
File size : 8.58 GiB
Duration : 2h 0mn
Overall bit rate : 10.2 Mbps
Movie name : The Accidental Detective [2015] [720p] RUSSUB
Encoded date : UTC 2016-03-17 14:54:19
Writing application : mkvmerge v7.8.0 ('River Man') 32bit built on Mar 27 2015 16:18:02
Writing library : libebml v1.3.1 + libmatroska v1.4.2
Video
ID : 1
Format : AVC
Format/Info : Advanced Video Codec
Format profile : Main@L4.1
Format settings, CABAC : Yes
Format settings, ReFrames : 2 frames
Format settings, GOP : M=3, N=13
Codec ID : V_MPEG4/ISO/AVC
Duration : 2h 0mn
Bit rate : 9 834 Kbps
Width : 1 280 pixels
Height : 720 pixels
Display aspect ratio : 2.40:1
Original display aspect ratio : 16:9
Frame rate mode : Constant
Frame rate : 23.976 fps
Color space : YUV
Chroma subsampling : 4:2:0
Bit depth : 8 bits
Scan type : Progressive
Bits/(Pixel*Frame) : 0.445
Stream size : 8.24 GiB (96%)
Title : profile.php?mode=viewprofile&u=22488948 || RG Orient Extreme Films
Language : Korean
Default : Yes
Forced : No
Audio
ID : 2
Format : AC-3
Format/Info : Audio Coding 3
Mode extension : CM (complete main)
Format settings, Endianness : Big
Codec ID : A_AC3
Duration : 2h 0mn
Bit rate mode : Constant
Bit rate : 192 Kbps
Channel(s) : 2 channels
Channel positions : Front: L R
Sampling rate : 48.0 KHz
Bit depth : 16 bits
Compression mode : Lossy
Stream size : 165 MiB (2%)
Language : Korean
Default : Yes
Forced : No
Text
ID : 3
Format : ASS
Codec ID : S_TEXT/ASS
Codec ID/Info : Advanced Sub Station Alpha
Compression mode : Lossless
Title : CopperNiK
Language : Russian
Default : Yes
Forced : No

сравнение с раздачей из SD раздела

http://rutracker.org/forum/viewtopic.php?t=5188907 (раздача автора, разная весовая категория, HDRip) - cropped - эта раздача

Цитата:[box=#F5F5F5,#F5F5F5] Русские субтитры взяты с этой раздачи, thx: CopperNiK[/box]- видео поток зачем то захвачен с аспектом 16:9 ¯\_(ツ)_/¯ правильный аспект, я, прописал через mkv контейнер 2,40:1 можно смотреть через плееры которые поддерживают это - mpc, splash, potplayer
[Профиль] [ЛС]
Показать сообщения:    
Ответить на тему

Текущее время: 19-Фев 16:40

Часовой пояс: UTC + 3



Вы не можете начинать темы
Вы не можете отвечать на сообщения
Вы не можете редактировать свои сообщения
Вы не можете удалять свои сообщения
Вы не можете голосовать в опросах
Вы не можете прикреплять файлы к сообщениям
Вы можете скачивать файлы