BitTorrent клиенты



Отравленный мозг / Ядовитая ягода в моём мозгу / Nounai poizun berî / Poison Berry in My Brain (Ючи Сато / Yuichi Sato) [2015, Япония, комедия, BDRip 720p] Sub (Rus, Eng) + Original (Jap)

Ответить на тему
 
Автор Сообщение

Keeper ®

Пол: Не указан

Стаж: 1 год

Сообщений: 499

Создавать темы 07-Фев-2018 20:47

[Цитировать]

Отравленный мозг / Ядовитая ягода в моём мозгу / Nounai poizun berî / Poison Berry in My Brain Страна: Япония
Жанр: комедия
Год выпуска: 2015
Продолжительность: 02:00:46
Перевод: Субтитры
Субтитры: английские (fansub), русские (ФСГ 'Kingdom Loli-Pop Stars!')
Оригинальная аудиодорожка: японский
Режиссер: Ючи Сато / Yuichi Sato
В ролях: Йоко Маки, Хидэтоси Нисидзима, Рюноскэ Камики, Казуюки Асано, Юки Фурукава, Хиёри Сакурада, Songha, Йо Ёсида
Описание:
На поверхности спокойнее, чем в глубине...Чужая душа потемки, а что же говорить тогда о чужой голове? А о своей? Ведь не так уж редко приходиться задаваться вопросом "Как МНЕ такое могло прийти в голову?"
В голове Сакурай Итико решения принимаются путём голосования. И довольно сложно принять окончательное решение, когда Голос разума, Память, Душевное состояние, Критическое мышление и Вера в лучшее начинают вещать, как же лучше поступить. Выбрать молодого и привлекающего интерес Саотомэ, с которым нет ни будущего, ни перспектив? Или же предпочесть надежного Оти-сана?
А что если во всё это вмешается до того не принимавшая участия в обсуждении сторона? Некая загадочная шестая жительница головы Итико... Кто возьмёт верх в голове героини? И кому достанется место в её сердце? © Морриган & Джой_Агата
- Релиз группы: -Тип релиза: BDRip 720p (рип от JosephChen@HDS)
Контейнер: MKV
Видео: AVC (x264), 1280x690 (1.85:1) at 23,976 fps, 4693 Кbps, 0.222 bpp
Аудио 1: DTS; 768 Kbps; CBR; 6 ch; 48 khz | Японский |
Формат субтитров: softsub (ASS/SSA); softsub (SRT)

Скриншоты || x264 Info || MediaInfo || Notes

MediaInfo

Код:General
Unique ID : 245713399000548947511536476191707158749 (0xB8DAADE5C4A09393B4DFBBC313A4D8DD)
Complete name : Ядовитая ягода в моём мозгу.2015.RUSSUB.720p.BluRay.x264-HDS.mkv
Format : Matroska
Format version : Version 4 / Version 2
File size : 4.70 GiB
Duration : 2h 0mn
Overall bit rate : 5 572 Kbps
Movie name : Poison Berry in My Brain [2015] [720p] RUSSUB
Encoded date : UTC 2016-03-18 13:44:07
Writing application : mkvmerge v7.8.0 ('River Man') 32bit built on Mar 27 2015 16:18:02
Writing library : libebml v1.3.1 + libmatroska v1.4.2
Attachements : calibriz.ttf / ChinaCyr.ttf / Cleopatra_0.ttf / PF Kids Pro Grade Five.ttf / times.ttf / timesbd.ttf / timesi.ttf
Video
ID : 1
Format : AVC
Format/Info : Advanced Video Codec
Format profile : High@L4.1
Format settings, CABAC : Yes
Format settings, ReFrames : 9 frames
Codec ID : V_MPEG4/ISO/AVC
Duration : 2h 0mn
Bit rate : 4 693 Kbps
Width : 1 280 pixels
Height : 690 pixels
Display aspect ratio : 1.85:1
Frame rate mode : Constant
Frame rate : 23.976 fps
Color space : YUV
Chroma subsampling : 4:2:0
Bit depth : 8 bits
Scan type : Progressive
Bits/(Pixel*Frame) : 0.222
Stream size : 3.96 GiB (84%)
Title : profile.php?mode=viewprofile&u=22488948 || RG Orient Extreme Films
Writing library : x264 core 142 r2431+42 c69a006 tMod [8-bit@4:2:0 X86_64]
Encoding settings : cabac=1 / ref=9 / deblock=1:-3:-3 / analyse=0x3:0x113 / me=umh / subme=11 / psy=1 / fade_compensate=0.00 / psy_rd=1.00:0.05 / mixed_ref=1 / me_range=32 / chroma_me=1 / trellis=2 / 8x8dct=1 / cqm=0 / deadzone=21,11 / fast_pskip=0 / chroma_qp_offset=-2 / threads=12 / lookahead_threads=2 / sliced_threads=0 / nr=0 / decimate=1 / interlaced=0 / bluray_compat=0 / constrained_intra=0 / fgo=0 / bframes=8 / b_pyramid=2 / b_adapt=2 / b_bias=0 / direct=3 / weightb=1 / open_gop=0 / weightp=2 / keyint=250 / keyint_min=23 / scenecut=40 / intra_refresh=0 / rc=crf / mbtree=0 / crf=18.7000 / qcomp=0.60 / qpmin=0:0:0 / qpmax=69:69:69 / qpstep=4 / ip_ratio=1.40 / pb_ratio=1.30 / aq=3:1.00 / aq-sensitivity=10.00 / aq-factor=1.00:1.00:1.00 / aq2=0 / aq3=0
Language : Japanese
Default : Yes
Forced : No
Audio
ID : 2
Format : DTS
Format/Info : Digital Theater Systems
Mode : 16
Format settings, Endianness : Big
Codec ID : A_DTS
Duration : 2h 0mn
Bit rate mode : Constant
Bit rate : 768 Kbps
Channel(s) : 6 channels
Channel positions : Front: L C R, Side: L R, LFE
Sampling rate : 48.0 KHz
Bit depth : 24 bits
Compression mode : Lossy
Stream size : 663 MiB (14%)
Language : Japanese
Default : Yes
Forced : No
Text #1
ID : 3
Format : ASS
Codec ID : S_TEXT/ASS
Codec ID/Info : Advanced Sub Station Alpha
Compression mode : Lossless
Title : ФСГ 'Kingdom Loli-Pop Stars!'
Language : Russian
Default : Yes
Forced : No
Text #2
ID : 4
Format : UTF-8
Codec ID : S_TEXT/UTF8
Codec ID/Info : UTF-8 Plain Text
Title : fansub by Momo Sensei
Language : English
Default : No
Forced : No
Text #3
ID : 5
Format : UTF-8
Codec ID : S_TEXT/UTF8
Codec ID/Info : UTF-8 Plain Text
Title : fansub by FURRITSUBS
Language : English
Default : No
Forced : No
Menu
00:00:00.000 : en:00:00:00.000
00:10:53.611 : en:00:10:53.611
00:20:25.391 : en:00:20:25.391
00:23:34.580 : en:00:23:34.580
00:34:25.480 : en:00:34:25.480
00:46:45.678 : en:00:46:45.678
00:54:33.937 : en:00:54:33.937
01:01:17.340 : en:01:01:17.340
01:04:55.433 : en:01:04:55.433
01:14:23.793 : en:01:14:23.793
01:20:48.010 : en:01:20:48.010
01:27:43.675 : en:01:27:43.675
01:32:11.818 : en:01:32:11.818
01:39:43.811 : en:01:39:43.811
01:46:42.980 : en:01:46:42.980
01:57:27.832 : en:01:57:27.832

x264 Info

[box=#F5F5F5,#F5F5F5]x264 [info]: frame I:1359 Avg QP:15.87 size:135500[/box]x264 [info]: frame P:31219 Avg QP:17.08 size: 49182x264 [info]: frame B:141170 Avg QP:18.98 size: 18601x264 [info]: consecutive B-frames: 1.1% 1.1% 2.7% 7.0% 13.3% 56.5% 8.9% 3.7% 5.7%
Цитата:[box=#F5F5F5,#F5F5F5] Русские субтитры взяты с этой раздачи, thx: Neria., огромное спасибо: Каури (перевод), Морриган (редактура)[/box]
[Профиль] [ЛС]
Показать сообщения:    
Ответить на тему

Текущее время: 19-Фев 16:21

Часовой пояс: UTC + 3



Вы не можете начинать темы
Вы не можете отвечать на сообщения
Вы не можете редактировать свои сообщения
Вы не можете удалять свои сообщения
Вы не можете голосовать в опросах
Вы не можете прикреплять файлы к сообщениям
Вы можете скачивать файлы