BitTorrent клиенты



Безрассудно влюблённые / Любовь сына-затворника / Blindly in Love / Hakoiri Musuko no Koi (Масахидэ Итии / Masahide Ichii) [2013, Япония, драма, BDRip 1080p] VO (D.I.M.) + Sub Eng + Original Jap

Ответить на тему
 
Автор Сообщение

Keeper ®

Пол: Не указан

Стаж: 1 год

Сообщений: 499

Создавать темы 07-Фев-2018 20:48

[Цитировать]

Безрассудно влюблённые / Любовь сына-затворника / Blindly in Love / Hakoiri Musuko no Koi
Страна: Япония
Студия: Booster Project, Kino Films
Жанр: драма
Год выпуска: 2013
Продолжительность: 01:57:21
Перевод: Одноголосый закадровый D.I.M.
Субтитры: английские
Оригинальная аудиодорожка: японский
Режиссер: Масахидэ Итии / Masahide Ichii
В ролях:
Ген Хосино / Gen Hoshino
Кахо / Kaho
Сэи Хираидзуми / Sei Hiraizumi
Рёко Морияма / Ryôko Moriyama
Рэн Осуги / Ren Ohsugi
Хитоми Куроки / Hitomi Kuroki
Описание: 35-летний Кентаро не любит общаться с людьми и никогда не встречался с женщиной в своей жизни. Он живёт с родителями и у него скромная должность в мэрии. У Кентаро нет друзей, и он не получал повышение по службе за все 13 лет работы на одном месте. Его родители беспокоятся, что Кентаро останется бобылем на всю оставшуюся жизнь. Поэтому они идут на встречу родителей-сватов, надеясь найти женщину, чтобы познакомить её со своим сыном. И тогда к ним подходит только одна пара родителей. Но отец девушки, президент успешной компании, после прочтения резюме Кентаро категорически против встречи своей дочери с ним. Но они утаивают, что их дочь слепая. Но вскоре их дети всё-таки знакомятся...
II Сэмпл II IMDB II
Релиз группа:

Тип релиза: BDRip 1080p
Контейнер: MKV
Видео: AVC / 1920x1080 / 16:9 / 23.976fps / Bit rate 12671Kbps / High@L4.1
Аудио 1: AC3 / 48.0 KHz / 2ch. / 192kbps / rus / VO / D.I.M.
Аудио 2: DTS / 48.0 KHz / 6ch. / 755kbps / 24bit / jap
Формат субтитров: softsub (SRT)

MediaInfo

Общее
Уникальный идентификатор : 231301912016250391603905301800508125101 (0xAE0320BB147082EF8E075226F2BAEFAD)
Полное имя : E:\!_HD\temp\Blindly.In.Love.2013.BDRip.1080p_by_vedigo.mkv
Формат : Matroska
Версия формата : Version 4 / Version 2
Размер файла : 11,2 Гбайт
Продолжительность : 1 ч. 57 м.
Общий поток : 13,6 Мбит/сек
Название фильма : Blindly.In.Love.2013.BDRip.1080p_by_vedigo
Дата кодирования : UTC 2016-02-18 02:09:15
Программа кодирования : mkvmerge v8.8.0 ('Wind at my back') 64bit
Библиотека кодирования : libebml v1.3.3 + libmatroska v1.4.4
Видео
Идентификатор : 1
Формат : AVC
Формат/Информация : Advanced Video Codec
Профиль формата : High@L4.1
Параметр CABAC формата : Да
Параметр ReFrames формата : 4 кадра
Идентификатор кодека : V_MPEG4/ISO/AVC
Продолжительность : 1 ч. 57 м.
Битрейт : 12,7 Мбит/сек
Ширина : 1920 пикселей
Высота : 1080 пикселей
Соотношение сторон : 16:9
Режим частоты кадров : Постоянный
Частота кадров : 23,976 (24000/1001) кадра/сек
Цветовое пространство : YUV
Субдискретизация насыщенности : 4:2:0
Битовая глубина : 8 бит
Тип развёртки : Прогрессивная
Бит/(Пиксели*Кадры) : 0.255
Размер потока : 10,4 Гбайт (93%)
Заголовок : Blindly.In.Love.2013.BDRip.1080p_by_vedigo
Библиотека кодирования : x264 core 133 r2334 a3ac64b
Настройки программы : cabac=1 / ref=4 / deblock=1:-3:-3 / analyse=0x3:0x113 / me=umh / subme=11 / psy=1 / psy_rd=1.05:0.10 / mixed_ref=1 / me_range=48 / chroma_me=1 / trellis=2 / 8x8dct=1 / cqm=0 / deadzone=21,11 / fast_pskip=0 / chroma_qp_offset=-3 / threads=12 / lookahead_threads=2 / sliced_threads=0 / nr=0 / decimate=0 / interlaced=0 / bluray_compat=0 / constrained_intra=0 / bframes=9 / b_pyramid=2 / b_adapt=2 / b_bias=0 / direct=3 / weightb=1 / open_gop=0 / weightp=2 / keyint=250 / keyint_min=23 / scenecut=40 / intra_refresh=0 / rc_lookahead=120 / rc=2pass / mbtree=1 / bitrate=12671 / ratetol=1.0 / qcomp=0.70 / qpmin=0 / qpmax=69 / qpstep=4 / cplxblur=20.0 / qblur=0.5 / ip_ratio=1.40 / aq=1:0.90
Default : Да
Forced : Нет
Аудио #1
Идентификатор : 2
Формат : AC-3
Формат/Информация : Audio Coding 3
Расширение режима : CM (complete main)
Параметр Endianness формата : Big
Идентификатор кодека : A_AC3
Продолжительность : 1 ч. 57 м.
Вид битрейта : Постоянный
Битрейт : 192 Кбит/сек
Каналы : 2 канала
Расположение каналов : Front: L R
Частота : 48,0 КГц
Частота кадров : 31,250 кадров/сек (1536 spf)
Метод сжатия : С потерями
Размер потока : 161 Мбайт (1%)
Заголовок : VO @ D.I.M.
Язык : Russian
Default : Да
Forced : Нет
Аудио #2
Идентификатор : 3
Формат : DTS
Формат/Информация : Digital Theater Systems
Режим : 16
Параметр Endianness формата : Big
Идентификатор кодека : A_DTS
Продолжительность : 1 ч. 57 м.
Вид битрейта : Постоянный
Битрейт : 755 Кбит/сек
Каналы : 6 каналов
Расположение каналов : Front: L C R, Side: L R, LFE
Частота : 48,0 КГц
Частота кадров : 93,750 кадра/сек (512 spf)
Битовая глубина : 24 бит
Метод сжатия : С потерями
Размер потока : 633 Мбайт (6%)
Заголовок : original
Язык : Japanese
Default : Нет
Forced : Нет
Текст
Идентификатор : 4
Формат : UTF-8
Идентификатор кодека : S_TEXT/UTF8
Идентификатор кодека/Информация : UTF-8 Plain Text
Продолжительность : 1 ч. 53 м.
Битрейт : 23 бит/сек
Count of elements : 770
Размер потока : 19,9 Кбайт (0%)
Заголовок : subtitle eng
Язык : English
Default : Нет
Forced : Нет

Скриншоты


Сведения об исходнике

Общее
Уникальный идентификатор : 236633521108714311247195746236289976336 (0xB205F55AADE61BC5BD10698D500B0810)
Полное имя : E:\Satrip\Азия\Безрассудно влюблённые\Hakoiri.Musuko.no.Koi.2013.1080p.BluRay.x264-Yukosu.mkv
Формат : Matroska
Версия формата : Version 4 / Version 2
Размер файла : 10,9 Гбайт
Продолжительность : 1 ч. 57 м.
Общий поток : 13,3 Мбит/сек
Дата кодирования : UTC 2013-12-08 05:46:10
Программа кодирования : mkvmerge v6.1.0 ('Old Devil') built on Mar 2 2013 14:32:37
Библиотека кодирования : libebml v1.3.0 + libmatroska v1.4.0
Видео
Идентификатор : 1
Формат : AVC
Формат/Информация : Advanced Video Codec
Профиль формата : High@L4.1
Параметр CABAC формата : Да
Параметр ReFrames формата : 4 кадра
Идентификатор кодека : V_MPEG4/ISO/AVC
Продолжительность : 1 ч. 57 м.
Битрейт : 12,7 Мбит/сек
Ширина : 1920 пикселей
Высота : 1080 пикселей
Соотношение сторон : 16:9
Режим частоты кадров : Постоянный
Частота кадров : 23,976 (24000/1001) кадра/сек
Цветовое пространство : YUV
Субдискретизация насыщенности : 4:2:0
Битовая глубина : 8 бит
Тип развёртки : Прогрессивная
Бит/(Пиксели*Кадры) : 0.255
Размер потока : 10,2 Гбайт (93%)
Библиотека кодирования : x264 core 133 r2334 a3ac64b
Настройки программы : cabac=1 / ref=4 / deblock=1:-3:-3 / analyse=0x3:0x113 / me=umh / subme=11 / psy=1 / psy_rd=1.05:0.10 / mixed_ref=1 / me_range=48 / chroma_me=1 / trellis=2 / 8x8dct=1 / cqm=0 / deadzone=21,11 / fast_pskip=0 / chroma_qp_offset=-3 / threads=12 / lookahead_threads=2 / sliced_threads=0 / nr=0 / decimate=0 / interlaced=0 / bluray_compat=0 / constrained_intra=0 / bframes=9 / b_pyramid=2 / b_adapt=2 / b_bias=0 / direct=3 / weightb=1 / open_gop=0 / weightp=2 / keyint=250 / keyint_min=23 / scenecut=40 / intra_refresh=0 / rc_lookahead=120 / rc=2pass / mbtree=1 / bitrate=12671 / ratetol=1.0 / qcomp=0.70 / qpmin=0 / qpmax=69 / qpstep=4 / cplxblur=20.0 / qblur=0.5 / ip_ratio=1.40 / aq=1:0.90
Default : Да
Forced : Нет
[Профиль] [ЛС]
Показать сообщения:    
Ответить на тему

Текущее время: 23-Фев 00:05

Часовой пояс: UTC + 3



Вы не можете начинать темы
Вы не можете отвечать на сообщения
Вы не можете редактировать свои сообщения
Вы не можете удалять свои сообщения
Вы не можете голосовать в опросах
Вы не можете прикреплять файлы к сообщениям
Вы можете скачивать файлы