BitTorrent клиенты



Свидетель / The Witness / Wo shi zheng ren (Сан-Хун Ан / Sang-hoon Ahn) [2015, Китай, боевик, криминал, драма, HDTV 1080p] MVO (STEPonee) + DVO (SoftBox) + Original (Chi)

Ответить на тему
 
Автор Сообщение

Keeper ®

Пол: Не указан

Стаж: 1 год

Сообщений: 499

Создавать темы 07-Фев-2018 20:48

[Цитировать]

Свидетель / The Witness / Wo shi zheng ren Страна: Китай
Жанр: боевик, криминал, драма
Год выпуска: 2015
Продолжительность: 01:51:49
Перевод:
  • Любительский (многоголосый закадровый) STEPonee // Перевод: ФСГ 'Asian Shows Subbing Squad'
  • Любительский (двухголосый закадровый) SoftBox // Перевод: [WAO] We Are One
    Субтитры: английские (хардсаб), китайские (хардсаб), русские (форсированные на песни)
    Оригинальная аудиодорожка: китайский
    Режиссер: Сан-Хун Ан / Sang-hoon Ahn
    В ролях: Лу Хань, Цзинчунь Ванг, Ми Ян, Явэнь Чжу
    Описание:
    Молодая студентка университета в автокатастрофе теряет брата и зрение. Однажды, она садится в такси, водитель которого сбивает кого-то по дороге. Свидетелем ДТП был молодой человек, однако его показания сильно отличаются от показаний слепой девушки…
    Данный фильм основан на событиях описанных в корейском фильме "Слепая", 2011 года.
    - Релиз группы: -Тип релиза: HDTV 1080p
    Контейнер: MKV
    Видео: AVC (x264), 1920x832 (2.35:1) at 25,000 fps, 5796 Кbps
    Аудио 1: AC3; 192 Kbps; CBR; 2 ch; 48 khz | MVO - STEPonee |
    Аудио 2: AC3; 192 Kbps; CBR; 2 ch; 48 khz | DVO - SoftBox |
    Аудио 3: AC3; 192 Kbps; CBR; 2 ch; 48 khz | Китайский |
    Формат субтитров: hardsub; softsub (SSA/ASS);

    Скриншоты || x264 Info || MediaInfo || Notes

    MediaInfo

    Код:General
    Unique ID : 197593533723223909792428932843978864131 (0x94A7215E0F3DAF51A7CE74BF385BB603)
    Complete name : Свидетель.2015.MVO.1080p.HDTV.x264.mkv
    Format : Matroska
    Format version : Version 4 / Version 2
    File size : 5.08 GiB
    Duration : 1h 51mn
    Overall bit rate : 6 502 Kbps
    Movie name : The Witness [2015] [1080p] DVO
    Encoded date : UTC 2016-02-23 01:02:23
    Writing application : mkvmerge v7.8.0 ('River Man') 32bit built on Mar 27 2015 16:18:02
    Writing library : libebml v1.3.1 + libmatroska v1.4.2
    Video
    ID : 1
    Format : AVC
    Format/Info : Advanced Video Codec
    Format profile : High@L4.0
    Format settings, CABAC : Yes
    Format settings, ReFrames : 4 frames
    Codec ID : V_MPEG4/ISO/AVC
    Duration : 1h 51mn
    Bit rate : 5 796 Kbps
    Width : 1 920 pixels
    Height : 832 pixels
    Display aspect ratio : 2.35:1
    Frame rate mode : Constant
    Frame rate : 25.000 fps
    Color space : YUV
    Chroma subsampling : 4:2:0
    Bit depth : 8 bits
    Scan type : Progressive
    Bits/(Pixel*Frame) : 0.145
    Stream size : 4.53 GiB (89%)
    Title : profile.php?mode=viewprofile&u=22488948 || RG Orient Extreme Films
    Language : Chinese
    Default : Yes
    Forced : No
    Audio #1
    ID : 2
    Format : AC-3
    Format/Info : Audio Coding 3
    Mode extension : CM (complete main)
    Format settings, Endianness : Big
    Codec ID : A_AC3
    Duration : 1h 51mn
    Bit rate mode : Constant
    Bit rate : 192 Kbps
    Channel(s) : 2 channels
    Channel positions : Front: L R
    Sampling rate : 48.0 KHz
    Bit depth : 16 bits
    Compression mode : Lossy
    Stream size : 154 MiB (3%)
    Title : MVO [STEPonee]
    Language : Russian
    Default : Yes
    Forced : No
    Audio #2
    ID : 3
    Format : AC-3
    Format/Info : Audio Coding 3
    Mode extension : CM (complete main)
    Format settings, Endianness : Big
    Codec ID : A_AC3
    Duration : 1h 51mn
    Bit rate mode : Constant
    Bit rate : 192 Kbps
    Channel(s) : 2 channels
    Channel positions : Front: L R
    Sampling rate : 48.0 KHz
    Bit depth : 16 bits
    Compression mode : Lossy
    Stream size : 154 MiB (3%)
    Title : DVO [SoftBox]
    Language : Russian
    Default : No
    Forced : No
    Audio #3
    ID : 5
    Format : AC-3
    Format/Info : Audio Coding 3
    Mode extension : CM (complete main)
    Format settings, Endianness : Big
    Codec ID : A_AC3
    Duration : 1h 51mn
    Bit rate mode : Constant
    Bit rate : 192 Kbps
    Channel(s) : 2 channels
    Channel positions : Front: L R
    Sampling rate : 48.0 KHz
    Bit depth : 16 bits
    Compression mode : Lossy
    Stream size : 154 MiB (3%)
    Language : Chinese
    Default : No
    Forced : No
    Text
    ID : 4
    Format : ASS
    Codec ID : S_TEXT/ASS
    Codec ID/Info : Advanced Sub Station Alpha
    Compression mode : Lossless
    Title : forced songs
    Language : Russian
    Default : Yes
    Forced : No
    Цитата:[box=#F5F5F5,#F5F5F5] Аудио дорожка №1 взята с этой раздачи, thx: Recitant[/box] Аудио дорожка №2 взята с этой раздачи, thx: qosta mc- STEPonee - роли озвучивали: Натиа Макаридзе, Юрий Балякин, Илья Хайко, Ксения Емшенецкая, Архелон SoftBox - роли озвучивали: Akonya, Prince Lemon
  • [Профиль] [ЛС]
    Показать сообщения:    
    Ответить на тему

    Текущее время: 19-Фев 16:24

    Часовой пояс: UTC + 3



    Вы не можете начинать темы
    Вы не можете отвечать на сообщения
    Вы не можете редактировать свои сообщения
    Вы не можете удалять свои сообщения
    Вы не можете голосовать в опросах
    Вы не можете прикреплять файлы к сообщениям
    Вы можете скачивать файлы