Статистика раздачи
Размер:  99 MB   |    Зарегистрирован:  4 месяца 4 дня   |    Скачан:  0 раз

Полного источника не было: Никогда

 
   
 
 

soda ®

Пол:
Не указан
Стаж:
4 месяца 5 дней
Сообщений:
143

Камакура
Kamakura- Страна: Япония
Жанр: драма, сюрреализм
Продолжительность: Movie, 00:05:21
Год выпуска: 2014
Перевод: Не требуется
Русские субтитры: нет
Режиссёр: Ёрико Мицушири / Yoriko Mizushiri
Роли озвучивали: музыкальное сопровождениеОписание: Одинокий снеговик притулился посередине заснеженного рисового поля. Белизна и тишина будут властвовать вокруг, пока не придет весна…Доп. информация: Arte HD
Награды: номинация на приз "Золотой медведь" за лучший короткометражный фильм Berlin International Film Festival 2014; номинация на приз "Золотой дракон" Cracow Film Festival 2014; номинация на Гран-при "Деревянный Волк" за лучшую анимационную короткометражку Tallinn Black Nights Film Festival 2014.
Качество: HDTVRip-AVC
Формат: MKV
Видео: AVC (H.264), 1280x720 (16:9), 25 fps, ~2400 kbps, 8 bits
Аудио: AC3, 2 ch, 48 kHz, ~192.00 kbps
Субтитры: отсутствуют

Подробные технические данные

Общее
Уникальный идентификатор : 241515007321453860636199000886703723354 (0xB5B21934CD0D2B09AC4B7ABED4E6935A)
Полное имя : E:\My Torrents 2\[apreder]MINI_MOVIES_09\[apreder]MM_Kamakura(2014)HDTVRip.mkv
Формат : Matroska
Версия формата : Version 2
Размер файла : 99,1 Мбайт
Продолжительность : 5 м. 21 с.
Общий поток : 2586 Кбит/сек
Дата кодирования : UTC 2015-02-15 13:09:07
Программа кодирования : mkvmerge v7.6.0 ('Garden of Dreams') 64bit built on Feb 8 2015 13:04:34
Библиотека кодирования : libebml v1.3.1 + libmatroska v1.4.2
Видео
Идентификатор : 1
Формат : AVC
Формат/Информация : Advanced Video Codec
Профиль формата : High@L4.1
Параметр CABAC формата : Да
Параметр ReFrames формата : 9 кадров
Идентификатор кодека : V_MPEG4/ISO/AVC
Продолжительность : 5 м. 21 с.
Битрейт : 2400 Кбит/сек
Ширина : 1280 пикселей
Высота : 720 пикселей
Соотношение сторон : 16:9
Режим частоты кадров : Постоянный
Частота кадров : 25,000 кадров/сек
Цветовое пространство : YUV
Субдискретизация насыщенности : 4:2:0
Битовая глубина : 8 бит
Тип развёртки : Прогрессивная
Бит/(Пиксели*Кадры) : 0.104
Размер потока : 89,7 Мбайт (91%)
Библиотека кодирования : x264 core 144 r2525 40bb568
Настройки программы : cabac=1 / ref=9 / deblock=1:-1:-1 / analyse=0x3:0x133 / me=umh / subme=10 / psy=1 / psy_rd=1.00:0.15 / mixed_ref=1 / me_range=24 / chroma_me=1 / trellis=2 / 8x8dct=1 / cqm=0 / deadzone=21,11 / fast_pskip=1 / chroma_qp_offset=-3 / threads=6 / lookahead_threads=1 / sliced_threads=0 / nr=0 / decimate=1 / interlaced=0 / bluray_compat=0 / constrained_intra=0 / bframes=8 / b_pyramid=2 / b_adapt=2 / b_bias=0 / direct=3 / weightb=1 / open_gop=0 / weightp=2 / keyint=250 / keyint_min=25 / scenecut=40 / intra_refresh=0 / rc_lookahead=60 / rc=2pass / mbtree=1 / bitrate=2400 / ratetol=1.0 / qcomp=0.60 / qpmin=0 / qpmax=69 / qpstep=4 / cplxblur=20.0 / qblur=0.5 / vbv_maxrate=62500 / vbv_bufsize=78125 / nal_hrd=none / filler=0 / ip_ratio=1.40 / aq=1:1.00
Default : Да
Forced : Нет
Аудио
Идентификатор : 2
Формат : AC-3
Формат/Информация : Audio Coding 3
Расширение режима : CM (complete main)
Параметр Endianness формата : Big
Идентификатор кодека : A_AC3
Продолжительность : 5 м. 21 с.
Вид битрейта : Постоянный
Битрейт : 192 Кбит/сек
Каналы : 2 канала
Расположение каналов : Front: L R
Частота : 48,0 КГц
Битовая глубина : 16 бит
Метод сжатия : С потерями
Размер потока : 7,36 Мбайт (7%)
Default : Да
Forced : Нет

Скриншоты

Резервные скриншоты

-[2'123]
[www.cybertorrent.ru].t2191.torrent 
Торрент: Зарегистрирован [ 2018-02-16 11:35 ] · DEE1EFCC48924E01894E129FFE0B50BF169D6C55

Скачать .torrent

Скачать

16 KB

Статус: проверено
Скачан: 0 раз
Размер: 99 MB
Профиль [ЛС]
Показать сообщения:    

Текущее время: 21-Июн 07:57

Часовой пояс: UTC ± 0



Вы не можете начинать темы
Вы не можете отвечать на сообщения
Вы не можете редактировать свои сообщения
Вы не можете удалять свои сообщения
Вы не можете голосовать в опросах
Вы не можете прикреплять файлы к сообщениям
Вы можете скачивать файлы