Статистика раздачи
Размер:  1,41 GB   |    Зарегистрирован:  5 месяцев 26 дней   |    Скачан:  0 раз

Полного источника не было: Никогда

 
   
 
 

krek ®

Пол:
Не указан
Стаж:
5 месяцев 27 дней
Сообщений:
83

Мобильный воин ГАНДАМ: Старгейзер / Mobile Suit Gundam Seed C.E.73: Stargazer / Kidou Senshi Gundam Seed C.E. 73 Stargazer
Страна: Япония
Год выпуска: 2006 г.
Жанр: приключения, фантастика, меха
Тип: ONA
Продолжительность: 3 эп., ~15 мин. серия
Режиссер: Нисидзава Сусуму
Студия: Sunrise
Описание: Давно ждущим фанатам посвящается... Такую историю могли придумать только японцы или помешанные на Великой Эпопее о Гандамах... Чтоб из падения на многострадальную Землю Яниуса-7 сотворить сайд-стори к проекту SEED Destiny надо авторам сказать спасибо. Пусть они и делают на этом деньги, но как еще прикажете зарабатывать бедным авторам, которые еще клепают для нас 3 сезон новой эпопеи? Новые герои пусть их мало, новые Гандамы (читай прототипы Страйка и иже с ними) и такая маленькая деталь, которая была упущена авторами в Destiny... Смотрится классно и...печально. Да-да, это печальная история, хотя, если честно, то даже после просмотра этих 3 серий хочется взяться за просмотр предыдущих 100! серий проекта. Чтоб заново пережить ЭТО - Страйк, Иджис, Блитц, Фридом, Джастис, Легенда, Дестини... Кира, Асуран, Николь, Рэй, Шинн...
В общем всем фанатам смотреть пищать и хотеть еще!
Доп. информация:
Сэмпл: http://multi-up.com/1032348
Качество: BDRip
Тип релиза: Без хардсаба
Формат видео: MKV
Релиз/Автор рипа: nks?
Совместимость с бытовыми плеерами: Нет
Видео: AVC, 8 bits, 1280x720, 3500 kbps, 29.97 fps
Аудио: AC3, 256 kbps, 48 kHz, 2 ch Язык Русский (в составе контейнера) ; Озвучка: Муневра & БэдМороз & Azazel & Soer & Constantine & Мулентий & Алиса Царь & Chigusa & Крупт & Адрианзэтпи
Аудио 2: AC3, 256 kbps, 48 kHz, 2 ch Язык Японский
Субтитры: ASS, встроенные (только надписи) Язык субтитров русский ; Перевод: Редактор: g[un]man, Переводчик: Hiroki, Редактор: Тюлень
Субтитры 2: ASS, встроенные Язык субтитров русский ; Перевод 2: Редактор: g[un]man, Переводчик: Hiroki, Редактор: Тюлень

Подробные тех. данные

General
Unique ID : 244923240654609910671555289285784344616 (0xB842801551C0D63A9B0E5FB99F9D9828)
Complete name : /Volumes/CCData/video/[AniFilm] Gundam73 MCTP Stargazer [OVA] [BDRip 720p x264] [MVO].mkv
Format : Matroska
Format version : Version 2
File size : 1.41 GiB
Duration : 50mn 15s
Overall bit rate : 4 023 Kbps
Encoded date : UTC 2015-01-27 11:26:07
Writing application : mkvmerge v3.3.0 ('Language') built on Mar 24 2010 14:59:24
Writing library : libebml v0.8.0 + libmatroska v0.9.0
Video
ID : 1
Format : AVC
Format/Info : Advanced Video Codec
Format profile : High@L4.0
Format settings, CABAC : Yes
Format settings, ReFrames : 10 frames
Codec ID : V_MPEG4/ISO/AVC
Duration : 50mn 15s
Bit rate : 3 500 Kbps
Width : 1 280 pixels
Height : 720 pixels
Display aspect ratio : 16:9
Frame rate mode : Constant
Frame rate : 29.970 fps
Color space : YUV
Chroma subsampling : 4:2:0
Bit depth : 8 bits
Scan type : Progressive
Bits/(Pixel*Frame) : 0.127
Stream size : 1.20 GiB (85%)
Title : Gundam SEED CE73 Stargazer
Writing library : x264 core 119 r2106 07efeb4
Encoding settings : cabac=1 / ref=10 / deblock=1:-3:-3 / analyse=0x3:0x133 / me=umh / subme=10 / psy=1 / psy_rd=1.00:0.00 / mixed_ref=1 / me_range=48 / chroma_me=0 / trellis=2 / 8x8dct=1 / cqm=0 / deadzone=21,11 / fast_pskip=0 / chroma_qp_offset=-2 / threads=6 / sliced_threads=0 / nr=0 / decimate=1 / interlaced=0 / bluray_compat=0 / constrained_intra=0 / bframes=3 / b_pyramid=2 / b_adapt=2 / b_bias=0 / direct=3 / weightb=1 / open_gop=0 / weightp=2 / keyint=250 / keyint_min=23 / scenecut=40 / intra_refresh=0 / rc_lookahead=60 / rc=2pass / mbtree=1 / bitrate=3500 / ratetol=1.0 / qcomp=0.60 / qpmin=10 / qpmax=51 / qpstep=4 / cplxblur=20.0 / qblur=0.5 / ip_ratio=1.40 / aq=1:1.00
Language : Japanese
Default : Yes
Forced : Yes
Audio #1
ID : 2
Format : AC-3
Format/Info : Audio Coding 3
Mode extension : CM (complete main)
Format settings, Endianness : Big
Codec ID : A_AC3
Duration : 50mn 15s
Bit rate mode : Constant
Bit rate : 256 Kbps
Channel(s) : 2 channels
Channel positions : Front: L R
Sampling rate : 48.0 KHz
Bit depth : 16 bits
Compression mode : Lossy
Stream size : 92.0 MiB (6%)
Title : Russian 2.0 AniFilm (MVO)
Language : Russian
Default : Yes
Forced : Yes
Audio #2
ID : 3
Format : AC-3
Format/Info : Audio Coding 3
Mode extension : CM (complete main)
Format settings, Endianness : Big
Codec ID : A_AC3
Duration : 50mn 15s
Bit rate mode : Constant
Bit rate : 256 Kbps
Channel(s) : 2 channels
Channel positions : Front: L R
Sampling rate : 48.0 KHz
Bit depth : 16 bits
Compression mode : Lossy
Stream size : 92.0 MiB (6%)
Title : Japanese 2.0
Language : Japanese
Default : No
Forced : No
Text #1
ID : 4
Format : ASS
Codec ID : S_TEXT/ASS
Codec ID/Info : Advanced Sub Station Alpha
Compression mode : Lossless
Title : Russian Text
Language : Russian
Default : Yes
Forced : Yes
Text #2
ID : 5
Format : UTF-8
Codec ID : S_TEXT/UTF8
Codec ID/Info : UTF-8 Plain Text
Title : Rus Sub
Language : Russian
Default : No
Forced : No

Список эпизодов

01. Этап первый
02. Этап второй
03. Этап третий

Отличия

Раздачи в "Аниме » Гандам":
http://cybertorrent.ru/viewtopic.php?t=4104049 - BDRip, альтернативная озвучка
http://cybertorrent.ru/viewtopic.php?t=3214259 - BDRip, альтернативная озвучка
http://cybertorrent.ru/viewtopic.php?t=3604082 - BDRip, альтернативная озвучка

От Azazel

Спасибо Александру Бугаеву
Мобильный воин ГАНДАМ: Поколение
Мобильный воин ГАНДАМ: Судьба поколения
Kidou Senshi Gundam / Mobile Suit Gundam / Мобильный доспех Гандам (оглавление выложенного на трекере)
[www.cybertorrent.ru].t2186.torrent 
Торрент: Зарегистрирован [ 2018-02-16 11:35 ] · 6F500B9396AE8BB7D403C5D4C29C4AEF9F69431C

Скачать .torrent

Скачать

29 KB

Статус: проверено
Скачан: 0 раз
Размер: 1,41 GB
Профиль [ЛС]
Показать сообщения:    

Текущее время: 15-Авг 10:30

Часовой пояс: UTC ± 0



Вы не можете начинать темы
Вы не можете отвечать на сообщения
Вы не можете редактировать свои сообщения
Вы не можете удалять свои сообщения
Вы не можете голосовать в опросах
Вы не можете прикреплять файлы к сообщениям
Вы можете скачивать файлы
Torrents24.ru открытый BitTorrent Torrents24.pl открытый BitTorrent CyberTorrent.ru открытый BitTorrent BtList.ru рейтинг BitTorrent трекеров Яндекс.Метрика