BitTorrent клиенты



Любимый сын, любимая дочь / Дорогой / Dearest / Qin ai de (Питер Чан / Peter Chan) [2014, Китай, Гонконг, драма, BDRip 720p] Sub Rus, Chi + Original Chi

Ответить на тему
 
Автор Сообщение

Keeper ®

Пол: Не указан

Стаж: 1 год

Сообщений: 499

Создавать темы 07-Фев-2018 20:48

[Цитировать]

Любимый сын, любимая дочь / Дорогой / Dearest / Qin ai de
Страна: Китай, Гонконг
Жанр: Драма
Год выпуска: 2014
Продолжительность: 02:08:33
Перевод: Субтитры
Субтитры: русские (автор Dannymon), китайские
Оригинальная аудиодорожка: китайский
Режиссер: Питер Чан / Peter Chan
В ролях: Чжао Вэй, Хуан Бо, Тун Давэй, Хао Лэй, Чжан И, Чжан Юйци
Описание: Самый обычный день превращается в кошмарный сон для Тянь Вэньцзюня после того, как его сына похищают средь бела дня на улицах Шэньчжэня. После нескольких лет поисков Вэньцзюнь и его бывшая жена Лу Сяоцзюань находят сына в провинции Аньхой, однако тот не узнает своих родителей и считает своей матерью женщину по имени Ли Хунцинь. Там же полиция находит девочку, которую Хунцинь зовет своей дочерью.
Сэмпл: https://www.sendspace.com/file/zcqbtl
Качество видео: BDRip 720p
Формат видео: MKV
Видео: 1280x544 (2.35:1), 24 fps, x264 @ 5442 Kbps
Аудио: 640 Kbps, 48.0 Khz, 6 channels, AC-3 (китайский)
Формат субтитров: softsub (SRT)
P.S. Это мой первый перевод (да, под другим ником) и первая раздача. Перевод делался на основе оригинальных китайских субтитров.

MediaInfo

General
Unique ID : 235047024973112015114453762837991764970 (0xB0D4690E3C9997048E00B96E70ADB3EA)
Complete name : D:\Downloads\Torrents\Dearest.2014.720p.BluRay.x264.mkv
Format : Matroska
Format version : Version 4 / Version 2
File size : 5.46 GiB
Duration : 2h 8mn
Overall bit rate : 6 081 Kbps
Encoded date : UTC 2016-01-22 00:59:13
Writing application : mkvmerge v8.8.0 ('Wind at my back') 64bit
Writing library : libebml v1.3.3 + libmatroska v1.4.4
Video
ID : 1
Format : AVC
Format/Info : Advanced Video Codec
Format profile : High@L4.1
Format settings, CABAC : Yes
Format settings, ReFrames : 12 frames
Codec ID : V_MPEG4/ISO/AVC
Duration : 2h 8mn
Bit rate : 5 442 Kbps
Width : 1 280 pixels
Height : 544 pixels
Display aspect ratio : 2.35:1
Frame rate mode : Constant
Frame rate : 24.000 fps
Color space : YUV
Chroma subsampling : 4:2:0
Bit depth : 8 bits
Scan type : Progressive
Bits/(Pixel*Frame) : 0.326
Stream size : 4.88 GiB (89%)
Writing library : x264 core 129 r2245+704+36 8e61944 tMod+MixAQ [8-bit@4:2:0 X86_64]
Encoding settings : cabac=1 / ref=12 / deblock=1:-3:-3 / analyse=0x3:0x133 / me=umh / subme=11 / psy=1 / fade_compensate=0.00 / psy_rd=1.05:0.10 / mixed_ref=1 / me_range=32 / chroma_me=1 / trellis=2 / 8x8dct=1 / cqm=0 / deadzone=21,11 / fast_pskip=0 / chroma_qp_offset=-3 / threads=18 / lookahead_threads=3 / sliced_threads=0 / nr=0 / decimate=0 / interlaced=0 / bluray_compat=0 / constrained_intra=0 / fgo=0 / bframes=10 / b_pyramid=2 / b_adapt=2 / b_bias=0 / direct=3 / weightb=1 / open_gop=0 / weightp=2 / keyint=250 / keyint_min=24 / scenecut=40 / intra_refresh=0 / rc_lookahead=80 / rc=2pass / mbtree=1 / bitrate=5442 / ratetol=1.0 / qcomp=0.70 / qpmin=0 / qpmax=69 / qpstep=4 / cplxblur=20.0 / qblur=0.5 / ip_ratio=1.40 / aq=3 / aq-strength=0.85 / aq-sensitivity=10.00 / aq-ifactor=1.00 / aq-pfactor=1.00 / aq-bfactor=1.00 / aq2=0
Language : Chinese
Default : Yes
Forced : No
Color range : Limited
Matrix coefficients : BT.709
Audio
ID : 2
Format : AC-3
Format/Info : Audio Coding 3
Mode extension : CM (complete main)
Format settings, Endianness : Big
Codec ID : A_AC3
Duration : 2h 8mn
Bit rate mode : Constant
Bit rate : 640 Kbps
Channel(s) : 6 channels
Channel positions : Front: L C R, Side: L R, LFE
Sampling rate : 48.0 KHz
Frame rate : 31.250 fps (1536 spf)
Compression mode : Lossy
Stream size : 588 MiB (11%)
Language : Chinese
Default : Yes
Forced : No
Text #1
ID : 3
Format : UTF-8
Codec ID : S_TEXT/UTF8
Codec ID/Info : UTF-8 Plain Text
Duration : 2h 3mn
Bit rate : 89 bps
Count of elements : 1630
Stream size : 81.0 KiB (0%)
Language : Russian
Default : Yes
Forced : No
Text #2
ID : 4
Format : UTF-8
Codec ID : S_TEXT/UTF8
Codec ID/Info : UTF-8 Plain Text
Duration : 2h 2mn
Bit rate : 41 bps
Count of elements : 1616
Stream size : 36.9 KiB (0%)
Title : Simplified
Language : Chinese
Default : No
Forced : No
Text #3
ID : 5
Format : UTF-8
Codec ID : S_TEXT/UTF8
Codec ID/Info : UTF-8 Plain Text
Duration : 2h 2mn
Bit rate : 41 bps
Count of elements : 1616
Stream size : 36.9 KiB (0%)
Title : Traditional
Language : Chinese
Default : No
Forced : No
Menu
00:00:00.000 : en:00:00:00.000
00:10:15.625 : en:00:10:15.625
00:20:54.208 : en:00:20:54.208
00:35:04.333 : en:00:35:04.333
00:45:42.666 : en:00:45:42.666
00:52:56.333 : en:00:52:56.333
01:07:58.791 : en:01:07:58.791
01:15:09.708 : en:01:15:09.708
01:27:53.833 : en:01:27:53.833
01:37:19.500 : en:01:37:19.500
01:49:40.791 : en:01:49:40.791
01:58:26.750 : en:01:58:26.750

Скриншоты

[Профиль] [ЛС]
Показать сообщения:    
Ответить на тему

Текущее время: 21-Фев 23:34

Часовой пояс: UTC + 3



Вы не можете начинать темы
Вы не можете отвечать на сообщения
Вы не можете редактировать свои сообщения
Вы не можете удалять свои сообщения
Вы не можете голосовать в опросах
Вы не можете прикреплять файлы к сообщениям
Вы можете скачивать файлы