Статистика раздачи
Размер:  2,96 GB   |    Зарегистрирован:  7 месяцев 27 дней   |    Скачан:  0 раз

Полного источника не было: Никогда

Личеров:  1  [  0 KB/s  ]  
 
   
 
 

karapuz ®

Пол:
Не указан
Стаж:
8 месяцев
Сообщений:
128

Новые Приключения Скуби и Скреппи / The New Scooby and Scrappy-Doo Show
Страна: США
Жанр: Ужасы, Детектив, Комедия
Продолжительность: ~00:12:00
Год выпуска: 1983
Перевод: дубляж СВ-Дубль, по заказу СТС, 2001
Русские субтитры: есть, для серий 6,16,20-22
Главы: есть-Режиссёр: Уильям Ханна, Джозеф Барбера / William Hanna, Joseph Barbera
Описание: Очаровательный и смешной пес по кличке Скуби Ду вместе со своим хозяином Шеги и друзьями: Вельмой, Дафни и Фредди постоянно попадают в удивительные приключения. Они расследуют мистические случаи похищения людей и собак, связанные с призраками, заброшенными замками и затерянными сокровищами. И не смотря на то, что Скуби Ду ужасно боится привидений, и думает исключительно о сухариках и собачьих консервах, он всегда оказывается победителем и успешно распутывает все эти загадочные происшествия.

Список серий:

6 Несуществующий Динозавр (The Dinosaur Deception)
16 Грабеж на Карнавале (The Crazy Carnival Caper)
17 Скуби и Минотавр (Scooby and the Minotaur)
18 Скуби - Бейсболист (Scooby Pinch Hits)
20 Кубок Скуби (The Scooby Coupe)
21 Кому Мешает Чудовище? (Who's Minding the Monster?)
22 Скуби а-ля Сластена (Scooby ala Mode)
Предыдущие и альтернативные раздачи-Дополнительная информация:
  • В раздаче представлены все серии этого сериала, выпущенные на данный момент на DVD.
  • Полностью сериал никогда не издавался, вследствие чего серии собирались с различных сборников, как R1, так и R5. Если имелась и NTSC и PAL версия той или иной серии, выбиралась лучшая по качеству картинки (в случае со Скуби - PAL чаще всего уступает NTSC).
  • В серии №6 русская дорожка неполная, на места без перевода - форсированные субтитры.
  • У серий с российских изданий - нетронутый русский звук 192 kbps, с иностранных - 256 kbps.
  • За дорожку №1 большое спасибо afedrenkv и Pah'OK.-Качество: DVDRemux | 6,17-18 - NTSC | 16,20-22 - PAL
    Формат: MKV
    Видео NTSC: MPEG-2 | 720x480 | 23.976 fps | ~4300 kbps
    Видео PAL: MPEG-2 | 720x576 | 25.000 fps | ~4900 kbps
    Аудио 1: RUS | AC-3 | 48.0 KHz | 2 ch | 192/256 kbps
    Аудио 2: ENG | AC-3 | 48.0 KHz | 1 ch | 192 kbps
    Субтитры 1: RUS | VobSub
    Субтитры 2: ENG | VobSub
    Семпл: NTSC | PAL

    Подробные технические данные

    NTSC

    General
    Unique ID : 200941156714636040034593717542206952278 (0x972BDBEC835691D3B9F464F89071D356)
    Complete name : E:\РАЗДАЧА\1983 The New Scooby and Scrappy-Doo Show DVDRemux\1x06 - 17.09.1983 - Несуществующий Динозавр (The Dinosaur Deception) DVDRemux NTSC [DUB СВ-ДУБЛЬ] [ENG] {RUS+forced} {ENG} (CHP).mkv
    Format : Matroska
    Format version : Version 4 / Version 2
    File size : 406 MiB
    Duration : 12mn 9s
    Overall bit rate mode : Variable
    Overall bit rate : 4 672 Kbps
    Movie name : 1x06 - The Dinosaur Deception
    Encoded date : UTC 2015-01-28 12:59:17
    Writing application : mkvmerge v7.5.0 ('Glass Culture') 64bit built on Jan 4 2015 16:48:44
    Writing library : libebml v1.3.1 + libmatroska v1.4.2
    Attachements : cover.png
    DURATION : 00:00:58.703000000
    NUMBER_OF_FRAMES : 16
    NUMBER_OF_BYTES : 813
    _STATISTICS_WRITING_APP : mkvmerge v7.5.0 ('Glass Culture') 64bit built on Jan 4 2015 16:48:44
    _STATISTICS_WRITING_DATE_UT : 2015-01-28 12:59:17
    _STATISTICS_TAGS : BPS DURATION NUMBER_OF_FRAMES NUMBER_OF_BYTES
    Video
    ID : 1
    Format : MPEG Video
    Format version : Version 2
    Format profile : Main@Main
    Format settings, BVOP : Yes
    Format settings, Matrix : Custom
    Format settings, GOP : Variable
    Codec ID : V_MPEG2
    Codec ID/Info : MPEG 1 or 2 Video
    Bit rate mode : Variable
    Bit rate : 4 131 Kbps
    Maximum bit rate : 9 800 Kbps
    Width : 720 pixels
    Height : 480 pixels
    Display aspect ratio : 4:3
    Frame rate mode : Variable
    Original frame rate : 29.970 fps
    Standard : NTSC
    Color space : YUV
    Chroma subsampling : 4:2:0
    Bit depth : 8 bits
    Compression mode : Lossy
    Time code of first frame : 00:59:58;00
    Time code source : Group of pictures header
    Title : 2013 Scooby-Doo! 13 Spooky Tales: Ruh-Roh Robot!
    Language : English
    Default : Yes
    Forced : No
    DURATION : 00:12:09.062000000
    NUMBER_OF_FRAMES : 17482
    NUMBER_OF_BYTES : 383005594
    _STATISTICS_WRITING_APP : mkvmerge v7.5.0 ('Glass Culture') 64bit built on Jan 4 2015 16:48:44
    _STATISTICS_WRITING_DATE_UT : 2015-01-28 12:59:17
    _STATISTICS_TAGS : BPS DURATION NUMBER_OF_FRAMES NUMBER_OF_BYTES
    Audio #1
    ID : 2
    Format : AC-3
    Format/Info : Audio Coding 3
    Mode extension : CM (complete main)
    Format settings, Endianness : Big
    Codec ID : A_AC3
    Duration : 12mn 9s
    Bit rate mode : Constant
    Bit rate : 256 Kbps
    Channel(s) : 2 channels
    Channel positions : Front: L R
    Sampling rate : 48.0 KHz
    Bit depth : 16 bits
    Compression mode : Lossy
    Stream size : 22.2 MiB (5%)
    Title : DUB "СВ-Дубль" 2001
    Language : Russian
    Default : Yes
    Forced : No
    DURATION : 00:12:09.024000000
    NUMBER_OF_FRAMES : 22782
    NUMBER_OF_BYTES : 17496576
    _STATISTICS_WRITING_APP : mkvmerge v7.5.0 ('Glass Culture') 64bit built on Jan 4 2015 16:48:44
    _STATISTICS_WRITING_DATE_UT : 2015-01-28 12:59:17
    _STATISTICS_TAGS : BPS DURATION NUMBER_OF_FRAMES NUMBER_OF_BYTES
    Audio #2
    ID : 3
    Format : AC-3
    Format/Info : Audio Coding 3
    Mode extension : CM (complete main)
    Format settings, Endianness : Big
    Codec ID : A_AC3
    Duration : 12mn 9s
    Bit rate mode : Constant
    Bit rate : 192 Kbps
    Channel(s) : 1 channel
    Channel positions : Front: C
    Sampling rate : 48.0 KHz
    Bit depth : 16 bits
    Compression mode : Lossy
    Stream size : 16.7 MiB (4%)
    Language : English
    Default : No
    Forced : No
    DURATION : 00:11:29.144000000
    NUMBER_OF_FRAMES : 173
    NUMBER_OF_BYTES : 198976
    _STATISTICS_WRITING_APP : mkvmerge v7.5.0 ('Glass Culture') 64bit built on Jan 4 2015 16:48:44
    _STATISTICS_WRITING_DATE_UT : 2015-01-28 12:59:17
    _STATISTICS_TAGS : BPS DURATION NUMBER_OF_FRAMES NUMBER_OF_BYTES
    Text #1
    ID : 4
    Format : UTF-8
    Codec ID : S_TEXT/UTF8
    Codec ID/Info : UTF-8 Plain Text
    Title : Forced
    Language : Russian
    Default : Yes
    Forced : No
    DURATION : 00:11:39.857000000
    NUMBER_OF_FRAMES : 148
    NUMBER_OF_BYTES : 163149
    _STATISTICS_WRITING_APP : mkvmerge v7.5.0 ('Glass Culture') 64bit built on Jan 4 2015 16:48:44
    _STATISTICS_WRITING_DATE_UT : 2015-01-28 12:59:17
    _STATISTICS_TAGS : BPS DURATION NUMBER_OF_FRAMES NUMBER_OF_BYTES
    Text #2
    ID : 5
    Format : VobSub
    Muxing mode : zlib
    Codec ID : S_VOBSUB
    Codec ID/Info : The same subtitle format used on DVDs
    Language : Russian
    Default : No
    Forced : No
    Text #3
    ID : 6
    Format : VobSub
    Muxing mode : zlib
    Codec ID : S_VOBSUB
    Codec ID/Info : The same subtitle format used on DVDs
    Language : English
    Default : No
    Forced : No
    Menu
    00:00:00.000 : en:Chapter 01
    00:00:31.200 : en:Chapter 02
    00:11:34.072 : en:Chapter 03

    PAL

    General
    Unique ID : 235640330869091467125541095208589809715 (0xB146AD4B749D32299AF304C5CE5D5833)
    Complete name : E:\РАЗДАЧА\1983 The New Scooby and Scrappy-Doo Show DVDRemux\1x16 - 15.10.1983 - Грабеж на Карнавале (The Crazy Carnival Caper) DVDRemux PAL [DUB СВ-ДУБЛЬ] [ENG] {RUS} {ENG} (CHP).mkv
    Format : Matroska
    Format version : Version 4 / Version 2
    File size : 449 MiB
    Duration : 11mn 38s
    Overall bit rate mode : Variable
    Overall bit rate : 5 388 Kbps
    Movie name : 1x16 - The Crazy Carnival Caper
    Encoded date : UTC 2015-01-28 13:00:35
    Writing application : mkvmerge v7.5.0 ('Glass Culture') 64bit built on Jan 4 2015 16:48:44
    Writing library : libebml v1.3.1 + libmatroska v1.4.2
    Attachements : cover.png
    Video
    ID : 1
    Format : MPEG Video
    Format version : Version 2
    Format profile : Main@Main
    Format settings, BVOP : Yes
    Format settings, Matrix : Custom
    Format settings, GOP : Variable
    Format settings, picture st : Frame
    Codec ID : V_MPEG2
    Codec ID/Info : MPEG 1 or 2 Video
    Duration : 11mn 38s
    Bit rate mode : Variable
    Bit rate : 4 897 Kbps
    Maximum bit rate : 7 500 Kbps
    Width : 720 pixels
    Height : 576 pixels
    Display aspect ratio : 4:3
    Frame rate mode : Constant
    Frame rate : 25.000 fps
    Standard : PAL
    Color space : YUV
    Chroma subsampling : 4:2:0
    Bit depth : 8 bits
    Scan type : Interlaced
    Scan order : Top Field First
    Compression mode : Lossy
    Bits/(Pixel*Frame) : 0.472
    Time code of first frame : 00:59:58:00
    Time code source : Group of pictures header
    GOP, Open/Closed : Closed
    Stream size : 408 MiB (91%)
    Title : 2012 Scooby-Doo! Creepy Carnival
    Language : English
    Default : Yes
    Forced : No
    _STATISTICS_WRITING_APP : mkvmerge v7.5.0 ('Glass Culture') 64bit built on Jan 4 2015 16:48:44
    _STATISTICS_WRITING_DATE_UT : 2015-01-28 13:00:35
    _STATISTICS_TAGS : BPS DURATION NUMBER_OF_FRAMES NUMBER_OF_BYTES
    DURATION : 00:11:38.840000000
    NUMBER_OF_FRAMES : 17471
    NUMBER_OF_BYTES : 435616557
    Audio #1
    ID : 2
    Format : AC-3
    Format/Info : Audio Coding 3
    Mode extension : CM (complete main)
    Format settings, Endianness : Big
    Codec ID : A_AC3
    Duration : 11mn 38s
    Bit rate mode : Constant
    Bit rate : 192 Kbps
    Channel(s) : 1 channel
    Channel positions : Front: C
    Sampling rate : 48.0 KHz
    Bit depth : 16 bits
    Compression mode : Lossy
    Stream size : 16.0 MiB (4%)
    Title : DUB "СВ-Дубль" 2001
    Language : Russian
    Default : Yes
    Forced : No
    _STATISTICS_WRITING_APP : mkvmerge v7.5.0 ('Glass Culture') 64bit built on Jan 4 2015 16:48:44
    _STATISTICS_WRITING_DATE_UT : 2015-01-28 13:00:35
    _STATISTICS_TAGS : BPS DURATION NUMBER_OF_FRAMES NUMBER_OF_BYTES
    DURATION : 00:11:38.816000000
    NUMBER_OF_FRAMES : 21838
    NUMBER_OF_BYTES : 16771584
    Audio #2
    ID : 3
    Format : AC-3
    Format/Info : Audio Coding 3
    Mode extension : CM (complete main)
    Format settings, Endianness : Big
    Codec ID : A_AC3
    Duration : 11mn 38s
    Bit rate mode : Constant
    Bit rate : 192 Kbps
    Channel(s) : 1 channel
    Channel positions : Front: C
    Sampling rate : 48.0 KHz
    Bit depth : 16 bits
    Compression mode : Lossy
    Stream size : 16.0 MiB (4%)
    Language : English
    Default : No
    Forced : No
    _STATISTICS_WRITING_APP : mkvmerge v7.5.0 ('Glass Culture') 64bit built on Jan 4 2015 16:48:44
    _STATISTICS_WRITING_DATE_UT : 2015-01-28 13:00:35
    _STATISTICS_TAGS : BPS DURATION NUMBER_OF_FRAMES NUMBER_OF_BYTES
    DURATION : 00:11:38.816000000
    NUMBER_OF_FRAMES : 21838
    NUMBER_OF_BYTES : 16771584
    Text #1
    ID : 4
    Format : VobSub
    Muxing mode : zlib
    Codec ID : S_VOBSUB
    Codec ID/Info : The same subtitle format used on DVDs
    Language : Russian
    Default : No
    Forced : No
    _STATISTICS_WRITING_APP : mkvmerge v7.5.0 ('Glass Culture') 64bit built on Jan 4 2015 16:48:44
    _STATISTICS_WRITING_DATE_UT : 2015-01-28 13:00:35
    _STATISTICS_TAGS : BPS DURATION NUMBER_OF_FRAMES NUMBER_OF_BYTES
    DURATION : 00:11:36.318000000
    NUMBER_OF_FRAMES : 208
    NUMBER_OF_BYTES : 254579
    Text #2
    ID : 5
    Format : VobSub
    Muxing mode : zlib
    Codec ID : S_VOBSUB
    Codec ID/Info : The same subtitle format used on DVDs
    Language : English
    Default : No
    Forced : No
    _STATISTICS_WRITING_APP : mkvmerge v7.5.0 ('Glass Culture') 64bit built on Jan 4 2015 16:48:44
    _STATISTICS_WRITING_DATE_UT : 2015-01-28 13:00:35
    _STATISTICS_TAGS : BPS DURATION NUMBER_OF_FRAMES NUMBER_OF_BYTES
    DURATION : 00:11:10.878000000
    NUMBER_OF_FRAMES : 170
    NUMBER_OF_BYTES : 201650
    Menu
    00:00:00.000 : en:Chapter 01
    00:00:30.500 : en:Chapter 02
    00:11:03.172 : en:Chapter 03

    Скриншоты

    [www.cybertorrent.ru].t2170.torrent 
    Торрент: Зарегистрирован [ 2018-02-16 11:35 ] · CA5ED7632DBBAF5F7B336FB4CA48C8F6315D3768

    Скачать .torrent

    Скачать

    16 KB

    Статус: проверено
    Скачан: 0 раз
    Размер: 2,96 GB
  • Профиль [ЛС]
    Показать сообщения:    

    Текущее время: 16-Окт 02:28

    Часовой пояс: UTC ± 0



    Вы не можете начинать темы
    Вы не можете отвечать на сообщения
    Вы не можете редактировать свои сообщения
    Вы не можете удалять свои сообщения
    Вы не можете голосовать в опросах
    Вы не можете прикреплять файлы к сообщениям
    Вы можете скачивать файлы
    Torrents24.ru открытый BitTorrent Torrents24.pl открытый BitTorrent CyberTorrent.ru открытый BitTorrent BtList.ru рейтинг BitTorrent трекеров Яндекс.Метрика