BitTorrent клиенты



Китайская одиссея 2. Золушка / A Chinese Odyssey. Part Two. Cinderella / Sai yau gei: Sin leui kei yun (Джеффри Лау / Jeffrey Lau) [1995, Гонконг, Китай, боевик, фэнтези, BDRemux 1080p] VO (Акира) + Sub Rus, Eng + Original Chi

Ответить на тему
 
Автор Сообщение

Keeper ®

Пол: Не указан

Стаж: 1 год

Сообщений: 499

Создавать темы 07-Фев-2018 20:48

[Цитировать]

Китайская одиссея. Часть 2. Золушка / A Chinese Odyssey. Part Two. Cinderella / Sai yau gei: Sin leui kei yun
Страна: Гонконг, Китай
Студия: Xi'an Film Studio
Жанр: боевик, фэнтези, комедия
Год выпуска: 1995
Продолжительность: 01:39:44
Перевод: Одноголосый закадровый Акира
Субтитры: русские (Юрий Яворовский), английские
Оригинальная аудиодорожка: китайский
Режиссер: Джеффри Лау / Jeffrey Lau
В ролях: Стивен Чоу, Нг Ман-Тат, Ада Чои, Афена Чу, Кит Йинг Лам, Кар-Йинг Лау, Кин-Ян Ли, Карен Мок, Мэн Тат ЭнДжи и др.
Описание: Действие начинается точь-в-точь с того же места, где заканчивается первая часть — главный герой, Джокер, которому все предрекают, что он станет Королем Обезьян, получив Ящик Пандоры, случайно переносится на 500 лет назад, где встречает беглую богиню, в теле которой живут две сестры, одна из которых появляется только днем, а вторая — лишь ночью. Его единственное желание — вернуть себе вновь Ящик Пандоры, чтобы вернуться к своей жене, но вскоре его цели изменятся.
II Сэмпл II IMDB II
Релиз группа:

Доп. информация:
Английские субтитры распознаны с исходника
Текст русских субтитров перебит на оригинальный тайминг
Тип релиза: BDRemux 1080p
Контейнер: MKV
Видео: AVC / 1920x1080 / 16:9 / 24.0fps / 17992 kbps / High@L4.1
Аудио 1: AC3 / 48.0 KHz / 6ch. / 448kbps / rus / VO / Акира
Аудио 2: DTS-HD MA / 6.1 / 48 kHz / 2428 kbps / 16-bit (DTS Core: 6.1-ES / 48 kHz / 1509 kbps / 16-bit) Cantonese
Формат субтитров: softsub (SRT)

MediaInfo

Общее
Уникальный идентификатор : 237184923716902368324373425460494635010 (0xB270279A0CAA7151ACDDE87D196E9002)
Полное имя : G:\!!!_torrent\A.Chinese.Odyssey.Part.Two.Cinderella.1995.BDRemux.1080p_by_vedigo.mkv
Формат : Matroska
Версия формата : Version 4 / Version 2
Размер файла : 14,5 Гбайт
Продолжительность : 1 ч. 39 м.
Режим общего битрейта : Переменный
Общий поток : 20,9 Мбит/сек
Название фильма : A.Chinese.Odyssey.Part.Two.Cinderella.1995.BDRemux.1080p_by_vedigo
Дата кодирования : UTC 2016-01-18 01:31:23
Программа кодирования : mkvmerge v8.8.0 ('Wind at my back') 64bit
Библиотека кодирования : libebml v1.3.3 + libmatroska v1.4.4
Видео
Идентификатор : 1
Формат : AVC
Формат/Информация : Advanced Video Codec
Профиль формата : High@L4.1
Параметр CABAC формата : Да
Параметр ReFrames формата : 4 кадра
Идентификатор кодека : V_MPEG4/ISO/AVC
Продолжительность : 1 ч. 39 м.
Вид битрейта : Переменный
Битрейт : 18,0 Мбит/сек
Максимальный битрейт : 35,0 Мбит/сек
Ширина : 1920 пикселей
Высота : 1080 пикселей
Соотношение сторон : 16:9
Режим частоты кадров : Постоянный
Частота кадров : 24,000 кадра/сек
Цветовое пространство : YUV
Субдискретизация насыщенности : 4:2:0
Битовая глубина : 8 бит
Тип развёртки : Прогрессивная
Бит/(Пиксели*Кадры) : 0.361
Размер потока : 12,5 Гбайт (86%)
Заголовок : A.Chinese.Odyssey.Part.Two.Cinderella.1995.BDRemux.1080p_by_vedigo
Default : Да
Forced : Нет
Цветовой диапазон : Limited
Основные цвета : BT.709
Характеристики трансфера : BT.709
Коэффициенты матрицы : BT.709
Аудио #1
Идентификатор : 2
Формат : AC-3
Формат/Информация : Audio Coding 3
Расширение режима : CM (complete main)
Параметр Endianness формата : Big
Идентификатор кодека : A_AC3
Продолжительность : 1 ч. 39 м.
Вид битрейта : Постоянный
Битрейт : 448 Кбит/сек
Каналы : 6 каналов
Расположение каналов : Front: L C R, Side: L R, LFE
Частота : 48,0 КГц
Частота кадров : 31,250 кадров/сек (1536 spf)
Метод сжатия : С потерями
Размер потока : 320 Мбайт (2%)
Заголовок : VO @ Акира
Язык : Russian
Default : Да
Forced : Нет
Аудио #2
Идентификатор : 3
Формат : DTS
Формат/Информация : Digital Theater Systems
Профиль формата : MA / ES Discrete / Core
Режим : 16
Параметр Endianness формата : Big
Идентификатор кодека : A_DTS
Продолжительность : 1 ч. 39 м.
Вид битрейта : Переменный / Постоянный / Постоянный
Битрейт : 2428 Кбит/сек / 1509 Кбит/сек / 1509 Кбит/сек
Каналы : 7 каналов / 7 каналов / 6 каналов
Расположение каналов : Front: L C R, Side: L R, Back: C, LFE / Front: L C R, Side: L R, Back: C, LFE / Front: L C R, Side: L R, LFE
Частота : 48,0 КГц
Частота кадров : 93,750 кадра/сек (512 spf)
Битовая глубина : 16 бит
Метод сжатия : Без потерь / Lossy / Lossy
Размер потока : 1,69 Гбайт (12%)
Заголовок : original @ Cantonese
Язык : Chinese
Default : Нет
Forced : Нет
Текст #1
Идентификатор : 4
Формат : UTF-8
Идентификатор кодека : S_TEXT/UTF8
Идентификатор кодека/Информация : UTF-8 Plain Text
Продолжительность : 1 ч. 33 м.
Битрейт : 90 бит/сек
Count of elements : 1530
Размер потока : 62,6 Кбайт (0%)
Заголовок : subtitle rus @ Юрий Яворовский
Язык : Russian
Default : Нет
Forced : Нет
Текст #2
Идентификатор : 5
Формат : UTF-8
Идентификатор кодека : S_TEXT/UTF8
Идентификатор кодека/Информация : UTF-8 Plain Text
Продолжительность : 1 ч. 36 м.
Битрейт : 47 бит/сек
Count of elements : 1531
Размер потока : 33,7 Кбайт (0%)
Заголовок : subtitle eng
Язык : English
Default : Нет
Forced : Нет
Меню
00:00:00.000 : en:00:00:00.000
00:06:35.500 : en:00:06:35.500
00:12:54.083 : en:00:12:54.083
00:16:51.083 : en:00:16:51.083
00:21:46.042 : en:00:21:46.042
00:28:44.000 : en:00:28:44.000
00:34:02.208 : en:00:34:02.208
00:37:44.667 : en:00:37:44.667
00:41:54.750 : en:00:41:54.750
00:46:47.500 : en:00:46:47.500
00:52:23.125 : en:00:52:23.125
00:56:06.583 : en:00:56:06.583
01:02:01.792 : en:01:02:01.792
01:06:53.417 : en:01:06:53.417
01:13:13.000 : en:01:13:13.000
01:16:47.333 : en:01:16:47.333
01:23:47.083 : en:01:23:47.083
01:29:15.167 : en:01:29:15.167
01:32:43.292 : en:01:32:43.292
01:37:49.042 : en:01:37:49.042

Скриншоты


[Профиль] [ЛС]
Показать сообщения:    
Ответить на тему

Текущее время: 19-Фев 16:42

Часовой пояс: UTC + 3



Вы не можете начинать темы
Вы не можете отвечать на сообщения
Вы не можете редактировать свои сообщения
Вы не можете удалять свои сообщения
Вы не можете голосовать в опросах
Вы не можете прикреплять файлы к сообщениям
Вы можете скачивать файлы