BitTorrent клиенты



Любовный прогноз / Сегодняшняя любовь / Love Forecast / Today's Love / Oneului yeonae (Пак Чжин Пё / Park Jin Pyo, Ли Бён Хон / Lee Byeong Hun, Ли Хан / Lee Han) [2015, Южная Корея, мелодрама, BDRip 1080p] MVO (STEPonee) + Sub Rus, Eng + Original Kor

Ответить на тему
 
Автор Сообщение

Keeper ®

Пол: Не указан

Стаж: 1 год

Сообщений: 499

Создавать темы 07-Фев-2018 20:48

[Цитировать]

Любовный прогноз / Сегодняшняя любовь / Love Forecast / O-neu-lui yeo-nae
Страна: Южная Корея
Студия: Popcorn Films
Жанр: мелодрама
Год выпуска: 2015
Продолжительность: 01:58:22
Перевод: Любительский (многоголосый закадровый) STEPonee
Субтитры: русские (ФСГ "Азалии"), английские
Оригинальная аудиодорожка: корейский
Режиссеры: Пак Чжин Пё / Park Jin Pyo, Ли Бён Хон / Lee Byeong Hun, Ли Хан / Lee Han
В ролях:
• Ли Сын Ги (Lee Seung Gi) - Чжун Су
• Мун Чхе Вон (Moon Chae Won) - Хён У
• Ли Со Чжин (Lee Seo Jin) - Дон Чжин
• Хва Ён (Hwa Young) - Хи Чжин
• Чо Чжун Ён (Jung Joon Young) - Хё Бон
Описание: Скромный учитель Чжун Су и "богиня погоды", ведущая выпуска прогнозов на ТВ Хён У, дружат с детства. У них отличные отношения, друг для друга они, что называется, свои в доску, но каждому из них по отдельности совершенно не везёт в любви.
II Сэмпл II IMDB II
Релиз группа:

Доп. информация:
За многоголоску спасибо Recitant
Тип релиза: BDRip 1080p (Love.Forecast.2015.1080p.BluRay.DTS.x264-ARTEMIS)
Контейнер: MKV
Видео: AVC / 1920x800 / 2.40:1 / 23.976fps / Bit rate 8075Kbps / High@L4.1
Аудио 1: AC3 / 48.0 KHz / 2ch. / 192kbps / rus / MVO / STEPonee
Аудио 2: DTS / 48.0 KHz / 6ch. / 1509kbps / kor
Формат субтитров: softsub (SRT)

MediaInfo

Общее
Уникальный идентификатор : 235225003504322621816978339774800577899 (0xB0F6B0131EDDAAEFAC69B480157FC56B)
Полное имя : G:\!!!_torrent\Love.Forecast.2015.BDRip.1080p_by_vedigo.mkv
Формат : Matroska
Версия формата : Version 4 / Version 2
Размер файла : 8,09 Гбайт
Продолжительность : 1 ч. 58 м.
Общий поток : 9779 Кбит/сек
Название фильма : Love.Forecast.2015.BDRip.1080p_by_vedigo
Дата кодирования : UTC 2016-01-13 03:40:52
Программа кодирования : mkvmerge v8.8.0 ('Wind at my back') 64bit
Библиотека кодирования : libebml v1.3.3 + libmatroska v1.4.4
Видео
Идентификатор : 1
Формат : AVC
Формат/Информация : Advanced Video Codec
Профиль формата : High@L4.1
Параметр CABAC формата : Да
Параметр ReFrames формата : 5 кадров
Идентификатор кодека : V_MPEG4/ISO/AVC
Продолжительность : 1 ч. 58 м.
Битрейт : 8075 Кбит/сек
Ширина : 1920 пикселей
Высота : 800 пикселей
Соотношение сторон : 2,40:1
Режим частоты кадров : Постоянный
Частота кадров : 23,976 (24000/1001) кадра/сек
Цветовое пространство : YUV
Субдискретизация насыщенности : 4:2:0
Битовая глубина : 8 бит
Тип развёртки : Прогрессивная
Бит/(Пиксели*Кадры) : 0.219
Размер потока : 6,68 Гбайт (83%)
Заголовок : Love.Forecast.2015.BDRip.1080p_by_vedigo
Библиотека кодирования : x264 core 148 r2638 7599210
Настройки программы : cabac=1 / ref=5 / deblock=1:-3:-3 / analyse=0x3:0x133 / me=tesa / subme=11 / psy=1 / psy_rd=1.00:0.10 / mixed_ref=1 / me_range=49 / chroma_me=1 / trellis=2 / 8x8dct=1 / cqm=0 / deadzone=6,6 / fast_pskip=0 / chroma_qp_offset=-5 / threads=15 / lookahead_threads=3 / sliced_threads=0 / nr=0 / decimate=0 / interlaced=0 / bluray_compat=0 / constrained_intra=0 / bframes=16 / b_pyramid=2 / b_adapt=2 / b_bias=0 / direct=3 / weightb=1 / open_gop=0 / weightp=2 / keyint=230 / keyint_min=22 / scenecut=40 / intra_refresh=0 / rc_lookahead=60 / rc=crf / mbtree=1 / crf=17.0 / qcomp=0.80 / qpmin=0 / qpmax=69 / qpstep=4 / ip_ratio=1.10 / aq=1:0.50
Default : Да
Forced : Нет
Аудио #1
Идентификатор : 2
Формат : AC-3
Формат/Информация : Audio Coding 3
Расширение режима : CM (complete main)
Параметр Endianness формата : Big
Идентификатор кодека : A_AC3
Продолжительность : 1 ч. 58 м.
Вид битрейта : Постоянный
Битрейт : 192 Кбит/сек
Каналы : 2 канала
Расположение каналов : Front: L R
Частота : 48,0 КГц
Частота кадров : 31,250 кадров/сек (1536 spf)
Метод сжатия : С потерями
Размер потока : 163 Мбайт (2%)
Заголовок : MVO @ STEPonee
Язык : Russian
Default : Да
Forced : Нет
Аудио #2
Идентификатор : 3
Формат : DTS
Формат/Информация : Digital Theater Systems
Режим : 16
Параметр Endianness формата : Big
Идентификатор кодека : A_DTS
Продолжительность : 1 ч. 58 м.
Вид битрейта : Постоянный
Битрейт : 1509 Кбит/сек
Каналы : 6 каналов
Расположение каналов : Front: L C R, Side: L R, LFE
Частота : 48,0 КГц
Частота кадров : 93,750 кадра/сек (512 spf)
Битовая глубина : 24 бит
Метод сжатия : С потерями
Размер потока : 1,25 Гбайт (15%)
Заголовок : original
Язык : Korean
Default : Нет
Forced : Нет
Текст #1
Идентификатор : 4
Формат : UTF-8
Идентификатор кодека : S_TEXT/UTF8
Идентификатор кодека/Информация : UTF-8 Plain Text
Продолжительность : 1 ч. 54 м.
Битрейт : 96 бит/сек
Count of elements : 1655
Размер потока : 80,7 Кбайт (0%)
Заголовок : subtitle rus @ ФСГ "Азалии"
Default : Нет
Forced : Нет
Текст #2
Идентификатор : 5
Формат : UTF-8
Идентификатор кодека : S_TEXT/UTF8
Идентификатор кодека/Информация : UTF-8 Plain Text
Продолжительность : 1 ч. 57 м.
Битрейт : 53 бит/сек
Count of elements : 1654
Размер потока : 46,3 Кбайт (0%)
Заголовок : subtitle eng
Язык : English
Default : Нет
Forced : Нет
Меню
00:00:00.000 : en:00:00:00.000
00:02:44.790 : en:00:02:44.790
00:13:03.324 : en:00:13:03.324
00:21:40.382 : en:00:21:40.382
00:27:56.008 : en:00:27:56.008
00:35:45.769 : en:00:35:45.769
00:41:24.607 : en:00:41:24.607
00:46:17.483 : en:00:46:17.483
00:56:27.384 : en:00:56:27.384
01:04:58.311 : en:01:04:58.311
01:14:10.613 : en:01:14:10.613
01:21:28.592 : en:01:21:28.592
01:28:16.917 : en:01:28:16.917
01:32:53.735 : en:01:32:53.735
01:42:31.228 : en:01:42:31.228
01:52:42.464 : en:01:52:42.464

Скриншоты


[Профиль] [ЛС]
Показать сообщения:    
Ответить на тему

Текущее время: 20-Фев 06:53

Часовой пояс: UTC + 3



Вы не можете начинать темы
Вы не можете отвечать на сообщения
Вы не можете редактировать свои сообщения
Вы не можете удалять свои сообщения
Вы не можете голосовать в опросах
Вы не можете прикреплять файлы к сообщениям
Вы можете скачивать файлы