Статистика раздачи
Размер:  2,84 GB   |    Зарегистрирован:  9 месяцев 22 дня   |    Скачан:  0 раз

Полного источника не было: Никогда

 
   
 
 

Zljuka ®

Пол:
Не указан
Стаж:
9 месяцев 23 дня
Сообщений:
87

Алиса в Стране Чудес / Alice in Wonderland
Страна: США, Япония
Жанр: Семейный, мультфильм, сказка
Продолжительность: 00:46:39
Год выпуска: 1995
Перевод 1: Профессиональный (многоголосый закадровый)
Перевод 1: Профессиональный дублированный (Варус Видео)
Русские субтитры: нет
Режиссёр: Тошиюки Хирума / Toshiyuki Hiruma-Описание: Алиса скучала, сидя под старой яблоней, пока сестра читала неинтересную книжку без картинок. Но тут она увидела большого белого кролика, одетого в куртку и жилет. Достав из кармана часы, кролик торопливо скрылся в подозрительно темной норе. Набравшись смелости, Алиса шагнула вслед за ним и... попала в чудесный сказочный мир, где сбываются самые несбыточные фантазии.-Доп. материалы: отсутствуют
Качество: DVD5 (Custom)
Формат: DVD-video
Видео: MPEG-2 PAL, 720x576, 25fps, ~8000 Kb/s
Аудио 1: AC3, 48khz, 2ch, 192 kb/s, Русский (MVO)
Аудио 2: AC3, 48khz, 2ch, 192 kb/s, Русский (DUB)
Аудио 3: AC3, 48khz, 2ch, 192 kb/s, English (Original)
Субтитры: отсутствуют
Релиз: Благодарность Воронеж-1 и edich2 за дорожку с дубляжом и *Sergeant_am* за синхронизацию

DVDInfo

Title: Alice in Wonderland 1995 DVD5
Size: 2.84 Gb ( 2 976 886,00 KBytes ) - DVD-5
Enabled regions: 1, 2, 3, 4, 5, 6, 7, 8
VTS_01 :
Play Length: 00:46:20+00:00:19
Video: PAL 4:3 (720x576) VBR
Audio:
Russian (Dolby AC3, 2 ch)
Russian (Dolby AC3, 2 ch)
English (Dolby AC3, 2 ch)
* Menus Information *
VIDEO_TS Menu
Video:
PAL 4:3 (720x576) VBR
Audio:
Not specified (Dolby AC3, 6 ch)
English Language Unit :
Title Menu
VTS_01 Menu
Video:
PAL 4:3 (720x576) VBR
Audio:
Not specified (Dolby AC3, 2 ch)
English Language Unit :
Root Menu
Chapter (PTT) Menu

MediaInfo

Общее
Полное имя : E:\MULTFILMS\Alice in Wonderland 1995 DVD5\VIDEO_TS\VTS_01_1.VOB
Формат : MPEG-PS
Размер файла : 1024 Мбайт
Продолжительность : 16 м.
Режим общего битрейта : Переменный
Общий поток : 8722 Кбит/сек
Видео
Идентификатор : 224 (0xE0)
Формат : MPEG Video
Версия формата : Version 2
Профиль формата : Main@Main
Параметр BVOP формата : Да
Параметр матрицы формата : По умолчанию
Параметр GOP формата : M=3, N=13
Продолжительность : 16 м.
Вид битрейта : Переменный
Битрейт : 8000 Кбит/сек
Ширина : 720 пикселей
Высота : 576 пикселей
Соотношение сторон : 4:3
Частота кадров : 25,000 кадров/сек
Стандарт вещания : PAL
Цветовое пространство : YUV
Субдискретизация насыщенности : 4:2:0
Битовая глубина : 8 бит
Тип развёртки : Чересстрочная
Порядок развёртки : Верхнее поле первое
Метод сжатия : С потерями
Бит/(Пиксели*Кадры) : 0.772
Временной код первого кадра : 01:00:12:00
Оригинал временного кода : Group of pictures header
Размер потока : 936 Мбайт (91%)
Основные цвета : BT.601 PAL
Характеристики трансфера : BT.470 System B, BT.470 System G
Коэффициенты матрицы : BT.601
Аудио #1
Идентификатор : 189 (0xBD)-128 (0x80)
Формат : AC-3
Формат/Информация : Audio Coding 3
Расширение режима : CM (complete main)
Параметр Endianness формата : Big
Режим смешивания : DVD-Video
Продолжительность : 16 м.
Вид битрейта : Постоянный
Битрейт : 192 Кбит/сек
Каналы : 2 канала
Расположение каналов : Front: L R
Частота : 48,0 КГц
Битовая глубина : 16 бит
Метод сжатия : С потерями
Размер потока : 22,5 Мбайт (2%)
Аудио #2
Идентификатор : 189 (0xBD)-129 (0x81)
Формат : AC-3
Формат/Информация : Audio Coding 3
Расширение режима : CM (complete main)
Параметр Endianness формата : Big
Режим смешивания : DVD-Video
Продолжительность : 16 м.
Вид битрейта : Постоянный
Битрейт : 192 Кбит/сек
Каналы : 2 канала
Расположение каналов : Front: L R
Частота : 48,0 КГц
Битовая глубина : 16 бит
Метод сжатия : С потерями
Размер потока : 22,5 Мбайт (2%)
Аудио #3
Идентификатор : 189 (0xBD)-130 (0x82)
Формат : AC-3
Формат/Информация : Audio Coding 3
Расширение режима : CM (complete main)
Параметр Endianness формата : Big
Режим смешивания : DVD-Video
Продолжительность : 16 м.
Вид битрейта : Постоянный
Битрейт : 192 Кбит/сек
Каналы : 2 канала
Расположение каналов : Front: L R
Частота : 48,0 КГц
Битовая глубина : 16 бит
Метод сжатия : С потерями
Размер потока : 22,5 Мбайт (2%)
Меню

Скриншоты меню

Скриншоты


Информация по сборке

Диск собран из испанского DVD.
Используемый софт:
PgcDemux (Разборка диска)
BeSweet (Распаковка звука в формат WAV)
Adobe Audition (Синхронизация аудио)
Minnetonka Audio (Конвертация звука в формат Dolby AC3)
MuxMan (Сборка диска)
Adobe Photoshop (Редактирование пунктов меню)
DVDSubEdit (Редактирование подсветки кнопок меню)
DVD Remake Pro (Реавторинг DVD)
[www.cybertorrent.ru].t2164.torrent 
Торрент: Зарегистрирован [ 2018-02-16 11:35 ] · A7D1DC3BF13893001E55D1CE32081ED4DCD7025E

Скачать .torrent

Скачать

15 KB

Статус: проверено
Скачан: 0 раз
Размер: 2,84 GB
Профиль [ЛС]
Показать сообщения:    

Текущее время: 11-Дек 01:30

Часовой пояс: UTC ± 0



Вы не можете начинать темы
Вы не можете отвечать на сообщения
Вы не можете редактировать свои сообщения
Вы не можете удалять свои сообщения
Вы не можете голосовать в опросах
Вы не можете прикреплять файлы к сообщениям
Вы можете скачивать файлы
Torrents24.ru открытый BitTorrent Torrents24.pl открытый BitTorrent CyberTorrent.ru открытый BitTorrent BtList.ru рейтинг BitTorrent трекеров Яндекс.Метрика