BitTorrent клиенты



Муза / Ын Ге / A Muse / EunGyo (Чон Чжи У / Ji-woo Jung) [2012, Южная Корея, драма, BDRemux 1080p] Sub Rus, Eng + Original Kor

Ответить на тему
 
Автор Сообщение

Keeper ®

Пол: Не указан

Стаж: 1 год

Сообщений: 499

Создавать темы 07-Фев-2018 20:48

[Цитировать]

Муза / Ын Ге / A Muse / EunGyo
Страна: Южная Корея
Жанр: драма
Год выпуска: 2012
Продолжительность: 02:09:01
Перевод: Субтитры
Субтитры: русские, английские
Оригинальная аудиодорожка: корейский
Режиссер: Чон Чжи У / Ji-woo Jung
В ролях: Пак Хэ Иль, Ким Му Ёль, Ким Го Ын, Гоу-юн Ким, Чон Ман Сик, Парк Чоль-хён, Жонг Сео-ин, Ким Кён-иль, Ан Мин-Ён, Им Ми-йон и др.
Описание: Треугольник запутанных отношений маститого 70-летнего поэта, его молодого амбициозного ученика, и юной девушки, поневоле ставшей роковой музой старого мастера. Это история любви, зависти, вечного спора между талантом и бездарностью, между молодостью и старостью.
II Сэмпл II IMDB II
Релиз группа:

Доп. информация:
За русские субтитры спасибо indiotka
Тип релиза: BDRemux 1080p
Контейнер: MKV
Видео: AVC / 1920x1080 / 16:9 / 23.976fps / Bit rate 24500Kbps / High@L4.1
Аудио: DTS-MA / 48.0 KHz / 6ch. / 3072kbps / 24bit / (core 48.0 KHz / 6ch. / 1509kbps / 24bit) / kor
Формат субтитров: softsub (SRT)

MediaInfo

Общее
Уникальный идентификатор : 184250245166459220410631701419354034194 (0x8A9D4E7306FD43B5B20BB4DED35D1012)
Полное имя : H:\!_Torrent\A.Muse.2012.BDRemux.1080p_by_vedigo.mkv
Формат : Matroska
Версия формата : Version 4 / Version 2
Размер файла : 24,8 Гбайт
Продолжительность : 2 ч. 9 м.
Режим общего битрейта : Переменный
Общий поток : 27,5 Мбит/сек
Название фильма : A.Muse.2012.BDRemux.1080p_by_vedigo
Дата кодирования : UTC 2016-01-08 03:08:47
Программа кодирования : mkvmerge v8.7.0 ('All of the above') 64bit
Библиотека кодирования : libebml v1.3.3 + libmatroska v1.4.4
Видео
Идентификатор : 1
Формат : AVC
Формат/Информация : Advanced Video Codec
Профиль формата : High@L4.1
Параметр CABAC формата : Да
Параметр ReFrames формата : 4 кадра
Идентификатор кодека : V_MPEG4/ISO/AVC
Продолжительность : 2 ч. 9 м.
Вид битрейта : Переменный
Битрейт : 24,5 Мбит/сек
Максимальный битрейт : 35,0 Мбит/сек
Ширина : 1920 пикселей
Высота : 1080 пикселей
Соотношение сторон : 16:9
Режим частоты кадров : Постоянный
Частота кадров : 23,976 (24000/1001) кадра/сек
Стандарт вещания : NTSC
Цветовое пространство : YUV
Субдискретизация насыщенности : 4:2:0
Битовая глубина : 8 бит
Тип развёртки : Прогрессивная
Бит/(Пиксели*Кадры) : 0.492
Размер потока : 22,0 Гбайт (89%)
Заголовок : A.Muse.2012.BDRemux.1080p_by_vedigo
Default : Нет
Forced : Нет
Цветовой диапазон : Limited
Основные цвета : BT.709
Характеристики трансфера : BT.709
Коэффициенты матрицы : BT.709
Аудио
Идентификатор : 2
Формат : DTS
Формат/Информация : Digital Theater Systems
Профиль формата : MA / Core
Режим : 16
Параметр Endianness формата : Big
Идентификатор кодека : A_DTS
Продолжительность : 2 ч. 9 м.
Вид битрейта : Переменный / Постоянный
Битрейт : 3072 Кбит/сек / 1509 Кбит/сек
Каналы : 6 каналов
Расположение каналов : Front: L C R, Side: L R, LFE
Частота : 48,0 КГц
Частота кадров : 93,750 кадра/сек (512 spf)
Битовая глубина : 24 бит
Метод сжатия : Без потерь / Lossy
Размер потока : 2,76 Гбайт (11%)
Заголовок : original
Язык : Korean
Default : Да
Forced : Нет
Текст #1
Идентификатор : 3
Формат : UTF-8
Идентификатор кодека : S_TEXT/UTF8
Идентификатор кодека/Информация : UTF-8 Plain Text
Продолжительность : 2 ч. 3 м.
Битрейт : 41 бит/сек
Count of elements : 744
Размер потока : 37,7 Кбайт (0%)
Заголовок : subtitle rus
Язык : Russian
Default : Да
Forced : Нет
Текст #2
Идентификатор : 4
Формат : UTF-8
Идентификатор кодека : S_TEXT/UTF8
Идентификатор кодека/Информация : UTF-8 Plain Text
Продолжительность : 2 ч. 3 м.
Битрейт : 23 бит/сек
Count of elements : 741
Размер потока : 21,0 Кбайт (0%)
Заголовок : subtitle eng
Язык : English
Default : Нет
Forced : Нет
Меню
00:00:00.000 : en:00:00:00.000
00:09:14.762 : en:00:09:14.762
00:15:47.655 : en:00:15:47.655
00:18:00.245 : en:00:18:00.245
00:24:58.163 : en:00:24:58.163
00:31:43.985 : en:00:31:43.985
00:34:58.805 : en:00:34:58.805
00:43:28.897 : en:00:43:28.897
00:51:35.550 : en:00:51:35.550
00:56:57.414 : en:00:56:57.414
01:02:55.897 : en:01:02:55.897
01:12:22.212 : en:01:12:22.212
01:22:29.611 : en:01:22:29.611
01:39:12.321 : en:01:39:12.321
01:48:44.518 : en:01:48:44.518
01:55:37.138 : en:01:55:37.138

Скриншоты


[Профиль] [ЛС]
Показать сообщения:    
Ответить на тему

Текущее время: 23-Фев 00:33

Часовой пояс: UTC + 3



Вы не можете начинать темы
Вы не можете отвечать на сообщения
Вы не можете редактировать свои сообщения
Вы не можете удалять свои сообщения
Вы не можете голосовать в опросах
Вы не можете прикреплять файлы к сообщениям
Вы можете скачивать файлы