Статистика раздачи
Размер:  7,38 GB   |    Зарегистрирован:  5 месяцев 26 дней   |    Скачан:  0 раз
Сидов:  1  [  0 KB/s  ]   Личеров:  1  [  0 KB/s  ]  
 
   
 
 

krek ®

Пол:
Не указан
Стаж:
5 месяцев 27 дней
Сообщений:
83

Страна: Япония
Год выпуска: 2004 г.
Жанр: приключения, фантастика, меха, драма
Тип: Movie
Продолжительность: 95 мин. (I) + 95 мин. (II) + 93 мин. (III)
Режиссер: Фукуда Мицуо
Студия: Sunrise
Описание: Человечество нашло способ настолько хорошо усовершенствовать организм на генном уровне, что подопытные превосходили обычных людей по всем параметрам. Дети с измененными генами были быстрее, сильнее, намного умнее. Люди никогда не любили тех, кто сильно от них отличается. Началась война между Координаторами, людьми с измененным генным кодом, и Натуралами, получившими свои способности от природы. По случайности в эпицентре этой войны оказался подросток, Кира Ямато. Чтобы защитить своих друзей, он становится пилотом управляемого боевого робота GUNDAM. Сам Координатор, Кира не придает значения различию между Координаторами и Натуралами, и сражается на стороне тех, кого любит. Сражается за то, чтобы прекратить бессмысленную войну.
Компиляция 50 серий сериала в трех полнометражных фильмах. Добавлены новые сцены и немного новой анимации.
Доп. информация: От Azazel, по инициативе RONIN427 с согласия Ich Lauf.
Сэмплы: http://multi-up.com/1009074 (II), http://multi-up.com/1025288 (III)
Качество: DVDRip
Тип релиза: Без хардсаба
Формат видео: MKV
Релиз/Автор рипа: Temporary Worker
Совместимость с бытовыми плеерами: Нет
Видео: x264, 8 bits, 1024x576, 2826 kbps, 23,976 fps
Аудио:
(I) AAC, ~192 kbps, 48 kHz, 2 ch Язык Русский (в составе контейнера) ; Озвучка: одноголосая, Azazel / SHIZA Project
(II) AAC, 192 kbps, 48 kHz, 2 ch Язык Русский (в составе контейнера) ; Озвучка: двухголосая, Azazel - озвучивание мужских ролей & Chigusa - озвучивание женских ролей / SHIZA Project
(III) AC3, 320 kbps, 48 kHz, 2 ch Язык Русский (в составе контейнера) ; Озвучка: двухголосая, Azazel - озвучивание мужских ролей & Chigusa - озвучивание женских ролей / SHIZA Project
Аудио 2: AC3, 448 kbps, 48 kHz, 2 ch Язык Японский
Субтитры: SRT, внешние Язык субтитров русский ; Перевод: antinormanist

Подробные тех. данные

Фильм 1: Пустое поле боя

General
Unique ID : 329702224308827500184561881215523435785 (0xF80A56B1F23FA9C1DFD876766C9D3509)
Complete name : /CCData/video/[SHIZA Project] Kidou Senshi Gundam SEED Special Edition I - Kokuu no Senjou TV-Special [DVDRip]/[SHIZA Project] Kidou Senshi Gundam SEED Special Edition I - Kokuu no Senjou [Azazel].mkv
Format : Matroska
Format version : Version 2
File size : 2.27 GiB
Duration : 1h 35mn
Overall bit rate : 3 398 Kbps
Encoded date : UTC 2015-01-17 12:09:01
Writing application : mkvmerge v4.3.0 ('Escape from the Island') built on Sep 6 2010 20:51:36
Writing library : libebml v1.0.0 + libmatroska v1.0.0
Video
ID : 1
Format : AVC
Format/Info : Advanced Video Codec
Format profile : High@L4.1
Format settings, CABAC : Yes
Format settings, ReFrames : 14 frames
Codec ID : V_MPEG4/ISO/AVC
Duration : 1h 35mn
Width : 1 024 pixels
Height : 576 pixels
Display aspect ratio : 16:9
Frame rate mode : Constant
Frame rate : 23.976 fps
Color space : YUV
Chroma subsampling : 4:2:0
Bit depth : 8 bits
Scan type : Progressive
Writing library : x264 core 125 r2200 999b753
Encoding settings : cabac=1 / ref=14 / deblock=1:1:2 / analyse=0x3:0x133 / me=umh / subme=9 / psy=1 / psy_rd=0.80:0.00 / mixed_ref=1 / me_range=32 / chroma_me=1 / trellis=0 / 8x8dct=1 / cqm=0 / deadzone=21,11 / fast_pskip=0 / chroma_qp_offset=-2 / threads=12 / lookahead_threads=2 / sliced_threads=0 / nr=0 / decimate=1 / interlaced=0 / bluray_compat=0 / constrained_intra=0 / bframes=16 / b_pyramid=2 / b_adapt=2 / b_bias=0 / direct=1 / weightb=1 / open_gop=0 / weightp=2 / keyint=240 / keyint_min=23 / scenecut=40 / intra_refresh=0 / rc_lookahead=240 / rc=crf / mbtree=1 / crf=14.0 / qcomp=0.70 / qpmin=0 / qpmax=69 / qpstep=4 / ip_ratio=1.40 / aq=1:1.30
Language : Japanese
Default : Yes
Forced : No
Color primaries : BT.601 PAL
Transfer characteristics : BT.470 System B, BT.470 System G
Matrix coefficients : BT.601
Audio #1
ID : 2
Format : AAC
Format/Info : Advanced Audio Codec
Format profile : LC
Codec ID : A_AAC
Duration : 1h 35mn
Channel(s) : 2 channels
Channel positions : Front: L R
Sampling rate : 48.0 KHz
Compression mode : Lossy
Title : Azazel
Language : Russian
Default : Yes
Forced : No
Audio #2
ID : 3
Format : AC-3
Format/Info : Audio Coding 3
Mode extension : CM (complete main)
Format settings, Endianness : Big
Codec ID : A_AC3
Duration : 1h 35mn
Bit rate mode : Constant
Bit rate : 448 Kbps
Channel(s) : 2 channels
Channel positions : Front: L R
Sampling rate : 48.0 KHz
Bit depth : 16 bits
Compression mode : Lossy
Stream size : 307 MiB (13%)
Title : JAP Original
Language : Japanese
Default : No
Forced : No

Фильм 2: Далёкий рассвет

General
Unique ID : 202538797534569491002856912379398361550 (0x985F8DB2A5DED7CE971498522E5491CE)
Complete name : /CCData/video/[SHIZA Project] Kidou Senshi Gundam SEED Special Edition II - Harukanaru Akatsuki TV-Special [DVDRip]/[SHIZA Project] Kidou Senshi Gundam SEED Special Edition II - Harukanaru Akatsuki TV-Special [Azazel & Chigusa].mkv
Format : Matroska
Format version : Version 2
File size : 2.35 GiB
Duration : 1h 35mn
Overall bit rate : 3 503 Kbps
Encoded date : UTC 2014-10-26 19:03:36
Writing application : mkvmerge v3.4.0 ('Rapunzel') сборка от May 15 2010 09:38:20
Writing library : libebml v0.8.0 + libmatroska v0.9.0
Video
ID : 1
Format : AVC
Format/Info : Advanced Video Codec
Format profile : High@L4.1
Format settings, CABAC : Yes
Format settings, ReFrames : 14 frames
Codec ID : V_MPEG4/ISO/AVC
Duration : 1h 35mn
Width : 1 024 pixels
Height : 576 pixels
Display aspect ratio : 16:9
Frame rate mode : Constant
Frame rate : 23.976 fps
Color space : YUV
Chroma subsampling : 4:2:0
Bit depth : 8 bits
Scan type : Progressive
Writing library : x264 core 125 r2200 999b753
Encoding settings : cabac=1 / ref=14 / deblock=1:1:2 / analyse=0x3:0x133 / me=umh / subme=9 / psy=1 / psy_rd=0.80:0.00 / mixed_ref=1 / me_range=32 / chroma_me=1 / trellis=0 / 8x8dct=1 / cqm=0 / deadzone=21,11 / fast_pskip=0 / chroma_qp_offset=-2 / threads=12 / lookahead_threads=2 / sliced_threads=0 / nr=0 / decimate=1 / interlaced=0 / bluray_compat=0 / constrained_intra=0 / bframes=16 / b_pyramid=2 / b_adapt=2 / b_bias=0 / direct=1 / weightb=1 / open_gop=0 / weightp=2 / keyint=240 / keyint_min=23 / scenecut=40 / intra_refresh=0 / rc_lookahead=240 / rc=crf / mbtree=1 / crf=14.0 / qcomp=0.70 / qpmin=0 / qpmax=69 / qpstep=4 / ip_ratio=1.40 / aq=1:1.30
Language : Japanese
Default : No
Forced : No
Color primaries : BT.601 PAL
Transfer characteristics : BT.470 System B, BT.470 System G
Matrix coefficients : BT.601
Audio #1
ID : 2
Format : AAC
Format/Info : Advanced Audio Codec
Format profile : LC
Codec ID : A_AAC
Duration : 1h 35mn
Channel(s) : 2 channels
Channel positions : Front: L R
Sampling rate : 48.0 KHz
Compression mode : Lossy
Title : Azazel & Chigusa
Language : Russian
Default : Yes
Forced : No
Audio #2
ID : 3
Format : AC-3
Format/Info : Audio Coding 3
Mode extension : CM (complete main)
Format settings, Endianness : Big
Codec ID : A_AC3
Duration : 1h 35mn
Bit rate mode : Constant
Bit rate : 448 Kbps
Channel(s) : 2 channels
Channel positions : Front: L R
Sampling rate : 48.0 KHz
Bit depth : 16 bits
Compression mode : Lossy
Stream size : 307 MiB (13%)
Title : JAP Original
Language : Japanese
Default : No
Forced : No

Фильм 3: Грохочущее небо

General
Unique ID : 229912494940364041813034301302271049665 (0xACF7892E159D34409529E291D566FFC1)
Complete name : /CCData/video/[SHIZA Project] Kidou Senshi Gundam SEED Special Edition III - Kanketsu Hen Meidou no Sora TV-Special [DVDRip]/[SHIZA Project] Kidou Senshi Gundam SEED Special Edition III - Kanketsu Hen Meidou no Sora [Azazel & Chigusa].mkv
Format : Matroska
Format version : Version 2
File size : 2.76 GiB
Duration : 1h 33mn
Overall bit rate : 4 213 Kbps
Encoded date : UTC 2015-01-07 23:46:23
Writing application : mkvmerge v4.6.0 ('Still Crazy After All These Years') сборка от Mar 10 2011 02:50:32
Writing library : libebml v1.2.0 + libmatroska v1.1.0
Video
ID : 1
Format : AVC
Format/Info : Advanced Video Codec
Format profile : High@L4.1
Format settings, CABAC : Yes
Format settings, ReFrames : 14 frames
Codec ID : V_MPEG4/ISO/AVC
Duration : 1h 33mn
Bit rate : 3 361 Kbps
Width : 1 024 pixels
Height : 576 pixels
Display aspect ratio : 16:9
Frame rate mode : Constant
Frame rate : 23.976 fps
Color space : YUV
Chroma subsampling : 4:2:0
Bit depth : 8 bits
Scan type : Progressive
Bits/(Pixel*Frame) : 0.238
Stream size : 2.20 GiB (80%)
Writing library : x264 core 125 r2200 999b753
Encoding settings : cabac=1 / ref=14 / deblock=1:1:2 / analyse=0x3:0x133 / me=umh / subme=9 / psy=1 / psy_rd=0.80:0.00 / mixed_ref=1 / me_range=32 / chroma_me=1 / trellis=0 / 8x8dct=1 / cqm=0 / deadzone=21,11 / fast_pskip=0 / chroma_qp_offset=-2 / threads=12 / lookahead_threads=2 / sliced_threads=0 / nr=0 / decimate=1 / interlaced=0 / bluray_compat=0 / constrained_intra=0 / bframes=16 / b_pyramid=2 / b_adapt=2 / b_bias=0 / direct=1 / weightb=1 / open_gop=0 / weightp=2 / keyint=240 / keyint_min=23 / scenecut=40 / intra_refresh=0 / rc_lookahead=240 / rc=crf / mbtree=1 / crf=14.0 / qcomp=0.70 / qpmin=0 / qpmax=69 / qpstep=4 / ip_ratio=1.40 / aq=1:1.30
Language : Japanese
Default : Yes
Forced : No
Color primaries : BT.601 PAL
Transfer characteristics : BT.470 System B, BT.470 System G
Matrix coefficients : BT.601
Audio #1
ID : 2
Format : AC-3
Format/Info : Audio Coding 3
Mode extension : CM (complete main)
Format settings, Endianness : Big
Codec ID : A_AC3
Duration : 1h 33mn
Bit rate mode : Constant
Bit rate : 320 Kbps
Channel(s) : 2 channels
Channel positions : Front: L R
Sampling rate : 48.0 KHz
Bit depth : 16 bits
Compression mode : Lossy
Stream size : 215 MiB (8%)
Title : Azazel & Chigusa
Language : Russian
Default : Yes
Forced : No
Audio #2
ID : 3
Format : AC-3
Format/Info : Audio Coding 3
Mode extension : CM (complete main)
Format settings, Endianness : Big
Codec ID : A_AC3
Duration : 1h 33mn
Bit rate mode : Constant
Bit rate : 448 Kbps
Channel(s) : 2 channels
Channel positions : Front: L R
Sampling rate : 48.0 KHz
Bit depth : 16 bits
Compression mode : Lossy
Stream size : 301 MiB (11%)
Title : JAP Original
Language : Japanese
Default : No
Forced : No

Список эпизодов

1. Пустое поле боя
2. Далёкий рассвет
3. Грохочущее небо

Отличия

http://cybertorrent.ru/viewtopic.php?t=778947 - наличие русской озвучки

Скриншоты

1. Пустое поле боя
-2. Далёкий рассвет
-3. Грохочущее небо

От Azazel

Спасибо Александру Бугаеву
Мобильный воин ГАНДАМ: Поколение
Мобильный воин ГАНДАМ: Судьба поколения
Kidou Senshi Gundam / Mobile Suit Gundam / Мобильный доспех Гандам (оглавление выложенного на трекере)
[www.cybertorrent.ru].t2162.torrent 
Торрент: Зарегистрирован [ 2018-02-16 11:35 ] · A2936B0EA1682BD78D54DB1C47DB19A78338A8F7

Скачать .torrent

Скачать

75 KB

Статус: проверено
Скачан: 0 раз
Размер: 7,38 GB
Профиль [ЛС]
Показать сообщения:    

Текущее время: 15-Авг 08:33

Часовой пояс: UTC ± 0



Вы не можете начинать темы
Вы не можете отвечать на сообщения
Вы не можете редактировать свои сообщения
Вы не можете удалять свои сообщения
Вы не можете голосовать в опросах
Вы не можете прикреплять файлы к сообщениям
Вы можете скачивать файлы
Torrents24.ru открытый BitTorrent Torrents24.pl открытый BitTorrent CyberTorrent.ru открытый BitTorrent BtList.ru рейтинг BitTorrent трекеров Яндекс.Метрика