BitTorrent клиенты



Храм Шаолиня / Храм Шаолинь / Монастырь Шаолинь / Шаолиньский монастырь / The Shaolin temple / Shao Lin Si (Хсинь-Янь Чан / Hsin-Yen Chang) [1982, Китай, Гонконг, боевые искусства, BDRip 720p] VO + Sub Eng + Original Chi

Ответить на тему
 
Автор Сообщение

Keeper ®

Пол: Не указан

Стаж: 1 год

Сообщений: 499

Создавать темы 07-Фев-2018 20:48

[Цитировать]

Храм Шаолиня / Храм Шаолинь / Монастырь Шаолинь / Шаолиньский монастырь / The Shaolin temple / Shao Lin Si
Страна: Китай, Гонконг
Студия: Chung Yuen Motion Picture Company, Towa Productions, Zhongyuan Film
Жанр: боевые искусства
Год выпуска: 1982
Продолжительность: 01:39:55
Перевод: Одноголосый закадровый
Субтитры: английские
Оригинальная аудиодорожка: китайский
Режиссер: Хсинь-Янь Чан / Hsin-Yen Chang
В ролях: Джет Ли, Янь Цзихуа, Чжи Чуньхуа, Ван Цзюэ, Сунь Цзянькуй, Дин Лань, Лю Хуайлян, Пань Цинфу, Цуй Чжицян, Ху Цзяньцян, Ван Гуанцюань, Чжан Цзяньвэнь, Ду Чуаньян, Юй Чэнхуэй, Юй Хай и др.
Описание: Действие происходит в Китае в VII веке н. э. Второй император династии Тан Ли Шиминь был предан одним из своих генералов, который провозгласил себя императором Восточной столицы. Кроме того, генерал убивает одного из рабов, а сын этого раба — юноша Цзи Юань (Джет Ли) — убегает и находит приют у монахов храма Шаолиня. Под руководством монахов Цзи Юань изучает боевые искусства, желая отомстить убийце своего отца.
II Сэмпл II IMDB II
Релиз группа:

Доп. информация:
Насчет Королева возникли сомнения, как и у других пользователей, поставил VO
Тип релиза: BDRip 720p (The.Shaolin.Temple.1982.1080p.BDRemux.AVC.HDTracker)
Контейнер: MKV
Видео: AVC / 1280x534 / 2.40:1 / 23.976fps / Bit rate 8000Kbps / High@L4.1
Аудио 1: AC3 / 48.0 KHz / 6ch. / 448kbps / rus / VO
Аудио 2: AC3 / 48.0 KHz / 6ch. / 640kbps / chi
Формат субтитров: softsub (SRT)

MediaInfo

Общее
Уникальный идентификатор : 232052218699632464223347111607992697214 (0xAE93A1B4D4BB1FF8A1549C42DDEDC17E)
Полное имя : H:\!_Torrent\The.Shaolin.Temple.1982.BDRip.720p_by_vedigo.mkv
Формат : Matroska
Версия формата : Version 4 / Version 2
Размер файла : 6,35 Гбайт
Продолжительность : 1 ч. 39 м.
Общий поток : 9090 Кбит/сек
Название фильма : The.Shaolin.Temple.1982.BDRip.720p_by_vedigo
Дата кодирования : UTC 2016-01-05 05:35:34
Программа кодирования : mkvmerge v8.7.0 ('All of the above') 64bit
Библиотека кодирования : libebml v1.3.3 + libmatroska v1.4.4
Видео
Идентификатор : 1
Формат : AVC
Формат/Информация : Advanced Video Codec
Профиль формата : High@L4.1
Параметр CABAC формата : Да
Параметр ReFrames формата : 12 кадров
Идентификатор кодека : V_MPEG4/ISO/AVC
Продолжительность : 1 ч. 39 м.
Битрейт : 8000 Кбит/сек
Ширина : 1280 пикселей
Высота : 534 пикселя
Соотношение сторон : 2,40:1
Режим частоты кадров : Постоянный
Частота кадров : 23,976 (24000/1001) кадра/сек
Цветовое пространство : YUV
Субдискретизация насыщенности : 4:2:0
Битовая глубина : 8 бит
Тип развёртки : Прогрессивная
Бит/(Пиксели*Кадры) : 0.488
Размер потока : 5,58 Гбайт (88%)
Заголовок : The.Shaolin.Temple.1982.BDRip.720p_by_vedigo
Библиотека кодирования : x264 core 148 r2638 7599210
Настройки программы : cabac=1 / ref=12 / deblock=1:-3:-3 / analyse=0x3:0x133 / me=umh / subme=11 / psy=0 / mixed_ref=1 / me_range=48 / chroma_me=1 / trellis=2 / 8x8dct=1 / cqm=0 / deadzone=21,11 / fast_pskip=0 / chroma_qp_offset=0 / threads=12 / lookahead_threads=2 / sliced_threads=0 / nr=0 / decimate=1 / interlaced=0 / bluray_compat=0 / constrained_intra=0 / bframes=9 / b_pyramid=2 / b_adapt=2 / b_bias=0 / direct=3 / weightb=1 / open_gop=0 / weightp=2 / keyint=250 / keyint_min=23 / scenecut=40 / intra_refresh=0 / rc_lookahead=40 / rc=2pass / mbtree=0 / bitrate=8000 / ratetol=1.0 / qcomp=0.60 / qpmin=0 / qpmax=69 / qpstep=4 / cplxblur=20.0 / qblur=0.5 / vbv_maxrate=50000 / vbv_bufsize=62500 / nal_hrd=none / filler=0 / ip_ratio=1.40 / pb_ratio=1.30 / aq=1:0.90
Default : Да
Forced : Нет
Аудио #1
Идентификатор : 2
Формат : AC-3
Формат/Информация : Audio Coding 3
Расширение режима : CM (complete main)
Параметр Endianness формата : Big
Идентификатор кодека : A_AC3
Продолжительность : 1 ч. 39 м.
Вид битрейта : Постоянный
Битрейт : 448 Кбит/сек
Каналы : 6 каналов
Расположение каналов : Front: L C R, Side: L R, LFE
Частота : 48,0 КГц
Частота кадров : 31,250 кадров/сек (1536 spf)
Метод сжатия : С потерями
Размер потока : 320 Мбайт (5%)
Заголовок : VO
Язык : Russian
Default : Да
Forced : Нет
Аудио #2
Идентификатор : 3
Формат : AC-3
Формат/Информация : Audio Coding 3
Расширение режима : CM (complete main)
Параметр Endianness формата : Big
Идентификатор кодека : A_AC3
Продолжительность : 1 ч. 39 м.
Вид битрейта : Постоянный
Битрейт : 640 Кбит/сек
Каналы : 6 каналов
Расположение каналов : Front: L C R, Side: L R, LFE
Частота : 48,0 КГц
Частота кадров : 31,250 кадров/сек (1536 spf)
Метод сжатия : С потерями
Размер потока : 457 Мбайт (7%)
Заголовок : original
Язык : Chinese
Default : Нет
Forced : Нет
Текст
Идентификатор : 4
Формат : UTF-8
Идентификатор кодека : S_TEXT/UTF8
Идентификатор кодека/Информация : UTF-8 Plain Text
Продолжительность : 1 ч. 38 м.
Битрейт : 24 бит/сек
Count of elements : 611
Размер потока : 17,4 Кбайт (0%)
Заголовок : subtitle eng
Язык : English
Default : Нет
Forced : Нет
Меню
00:00:00.000 : en:00:00:00.000
00:05:00.000 : en:00:05:00.000
00:10:00.000 : en:00:10:00.000
00:15:00.000 : en:00:15:00.000
00:20:00.000 : en:00:20:00.000
00:25:00.000 : en:00:25:00.000
00:30:00.000 : en:00:30:00.000
00:35:00.000 : en:00:35:00.000
00:40:00.000 : en:00:40:00.000
00:45:00.000 : en:00:45:00.000
00:50:00.000 : en:00:50:00.000
00:55:00.000 : en:00:55:00.000
01:00:00.000 : en:01:00:00.000
01:05:00.000 : en:01:05:00.000
01:10:00.000 : en:01:10:00.000
01:15:00.000 : en:01:15:00.000
01:20:00.000 : en:01:20:00.000
01:25:00.000 : en:01:25:00.000
01:30:00.000 : en:01:30:00.000
01:35:00.000 : en:01:35:00.000

Скриншоты


Сравнение с исходником





x264 info

x264 [info]: using SAR=1/1
x264 [info]: using cpu capabilities: MMX2 SSE2Fast SSSE3 SSE4.2 AVX
x264 [info]: profile High, level 4.1
x264 [info]: frame I:1003 Avg QP:13.16 size:131418
x264 [info]: frame P:37989 Avg QP:15.36 size: 66366
x264 [info]: frame B:104766 Avg QP:17.00 size: 31910
x264 [info]: consecutive B-frames: 4.0% 6.6% 13.1% 29.6% 13.1% 28.9% 3.0% 1.2% 0.3% 0.3%
x264 [info]: mb I I16..4: 17.6% 53.2% 29.2%
x264 [info]: mb P I16..4: 14.3% 27.4% 16.0% P16..4: 13.9% 16.7% 10.3% 1.3% 0.0% skip: 0.0%
x264 [info]: mb B I16..4: 5.7% 8.9% 4.2% B16..8: 20.1% 20.4% 5.8% direct:20.8% skip:14.2% L0:33.0% L1:28.2% BI:38.8%
x264 [info]: 8x8 transform intra:47.6% inter:45.2%
x264 [info]: direct mvs spatial:96.8% temporal:3.2%
x264 [info]: coded y,uvDC,uvAC intra: 96.6% 95.0% 80.9% inter: 61.7% 45.7% 13.8%
x264 [info]: i16 v,h,dc,p: 6% 6% 56% 32%
x264 [info]: i8 v,h,dc,ddl,ddr,vr,hd,vl,hu: 18% 18% 17% 6% 7% 7% 7% 9% 11%
x264 [info]: i4 v,h,dc,ddl,ddr,vr,hd,vl,hu: 18% 15% 20% 6% 9% 8% 8% 6% 9%
x264 [info]: i8c dc,h,v,p: 45% 21% 17% 18%
x264 [info]: Weighted P-Frames: Y:9.5% UV:2.4%
x264 [info]: ref P L0: 35.6% 13.5% 18.9% 6.8% 6.6% 3.9% 4.3% 2.2% 2.5% 1.7% 2.0% 1.5% 0.4% 0.0%
x264 [info]: ref B L0: 79.9% 10.2% 3.0% 2.0% 1.2% 1.2% 0.8% 0.7% 0.5% 0.4% 0.2%
x264 [info]: ref B L1: 96.7% 3.3%
x264 [info]: kb/s:8000.19
[Профиль] [ЛС]
Показать сообщения:    
Ответить на тему

Текущее время: 23-Фев 00:07

Часовой пояс: UTC + 3



Вы не можете начинать темы
Вы не можете отвечать на сообщения
Вы не можете редактировать свои сообщения
Вы не можете удалять свои сообщения
Вы не можете голосовать в опросах
Вы не можете прикреплять файлы к сообщениям
Вы можете скачивать файлы