Статистика раздачи
Размер:  5,56 GB   |    Зарегистрирован:  9 месяцев 22 дня   |    Скачан:  0 раз

Полного источника не было: Никогда

Личеров:  1  [  0 KB/s  ]  
 
   
 
 

karapuz ®

Пол:
Не указан
Стаж:
9 месяцев 23 дня
Сообщений:
128

Новые Приключения Скуби-Ду / The New Scooby-Doo Mysteries
Страна: США
Жанр: Ужасы, Детектив, Комедия
Продолжительность: ~00:12:00
Год выпуска: 1984
Перевод:
1-2,4,6,8-12,17-18,25-26 Дубляж Объединение Русский Дубляж, по заказу СТС, 2002
1-2 Дубляж Пифагор, по заказу Warner Bros., 2012
25-26 Многоголосый закадровый с VHS Премьер Видео Фильм, 2004
6 Многоголосый закадровый с DVD R5 СР-Дистрибуция, 2012
Русские субтитры: есть, для серий 1-2,4,6,8-12,17-18
Главы: есть-Режиссёр: Уильям Ханна, Джозеф Барбера / William Hanna, Joseph Barbera
Описание: Очаровательный и смешной пес по кличке Скуби Ду вместе со своим хозяином Шеги и друзьями: Вельмой, Дафни и Фредди постоянно попадают в удивительные приключения. Они расследуют мистические случаи похищения людей и собак, связанные с призраками, заброшенными замками и затерянными сокровищами. И не смотря на то, что Скуби Ду ужасно боится привидений, и думает исключительно о сухариках и собачьих консервах, он всегда оказывается победителем и успешно распутывает все эти загадочные происшествия.

Список серий:

1-2 С Днем Рождения, Скуби-Ду (Happy Birthday, Scooby-Doo)
4 Рука Ужаса (The Hand of Horror)
6 Музей Каменных Фигур (The Stoney Glare Scare)
8 Команда Пчел (The Bee Team)
9 Кое-Кто Остается с Носом (A Code in the Nose)
10 Гиблое Дело (Doom Service)
11-12 Призраки Древних Астронавтов (Ghosts of the Ancient Astronauts)
17-18 Ночной Ужас в Белом Доме (A Night Louse at the White House)
25-26 Скуби и Щелкунчик (The Nutcracker Scoob)
Предыдущие и альтернативные раздачи-Дополнительная информация:
  • В раздаче представлены все серии этого сериала, выпущенные на данный момент на DVD.
  • Полностью сериал никогда не издавался, вследствие чего серии собирались с различных сборников, как R1, так и R5. Если имелась и NTSC и PAL версия той или иной серии, выбиралась лучшая по качеству картинки (в случае со Скуби - PAL чаще всего уступает NTSC).
  • За дорожку №1 большое спасибо blackaskew, за дорожку №3 - Shellters-bob.-Качество: DVDRemux | 1-2,25-26 - NTSC | 4,6,8-12,17-18 - PAL
    Формат: MKV
    Видео NTSC: MPEG-2 | 720x480 | 23.976 fps | ~4890 kbps
    Видео PAL: MPEG-2 | 720x576 | 25.000 fps | ~4500 kbps
    Аудио 1: RUS | AC-3 | 48.0 KHz | 2 ch | 256 kbps
    Аудио 2: RUS | AC-3 | 48.0 KHz | 2 ch | 192 kbps
    Аудио 3: RUS | AC-3 | 48.0 KHz | 2 ch | 192 kbps
    Аудио 4: RUS | AC-3 | 48.0 KHz | 2 ch | 192 kbps
    Аудио 5: ENG | AC-3 | 48.0 KHz | 1 ch | 192 kbps
    Субтитры 1: RUS | VobSub
    Субтитры 2: ENG | VobSub
    Семпл: NTSC | PAL

    Подробные технические данные

    NTSC

    General
    Unique ID : 236354068147691546802086215839347059158 (0xB1D023426D2F8A738365CCE061D329D6)
    Complete name : D:\РАЗДАЧА\1984 The New Scooby-Doo Mysteries DVDRemux\1x01-02 - 08.09.1984 - С Днем Рождения, Скуби-Ду (Happy Birthday, Scooby-Doo) DVDRemux NTSC [DUB ОРД] [DUB ПИФАГОР] [ENG] {RUS} {ENG} (CHP).mkv
    Format : Matroska
    Format version : Version 4 / Version 2
    File size : 953 MiB
    Duration : 23mn 37s
    Overall bit rate mode : Variable
    Overall bit rate : 5 641 Kbps
    Movie name : 1x01-02 - Happy Birthday, Scooby-Doo
    Encoded date : UTC 2015-01-23 12:44:23
    Writing application : mkvmerge v7.5.0 ('Glass Culture') 64bit built on Jan 4 2015 16:48:44
    Writing library : libebml v1.3.1 + libmatroska v1.4.2
    Attachements : cover.png
    _STATISTICS_WRITING_APP : mkvmerge v7.5.0 ('Glass Culture') 64bit built on Jan 4 2015 16:48:44
    _STATISTICS_WRITING_DATE_UT : 2015-01-23 12:44:23
    _STATISTICS_TAGS : BPS DURATION NUMBER_OF_FRAMES NUMBER_OF_BYTES
    DURATION : 00:23:37.440000000
    NUMBER_OF_FRAMES : 44295
    NUMBER_OF_BYTES : 34018560
    Video
    ID : 1
    Format : MPEG Video
    Format version : Version 2
    Format profile : Main@Main
    Format settings, BVOP : Yes
    Format settings, Matrix : Default
    Format settings, GOP : M=3, N=12
    Codec ID : V_MPEG2
    Codec ID/Info : MPEG 1 or 2 Video
    Bit rate mode : Variable
    Bit rate : 4 889 Kbps
    Maximum bit rate : 7 500 Kbps
    Width : 720 pixels
    Height : 480 pixels
    Display aspect ratio : 4:3
    Frame rate mode : Variable
    Original frame rate : 23.976 fps
    Standard : NTSC
    Color space : YUV
    Chroma subsampling : 4:2:0
    Bit depth : 8 bits
    Scan type : Progressive
    Scan order : 2:3 Pulldown
    Compression mode : Lossy
    Time code of first frame : 00:59:58;00
    Time code source : Group of pictures header
    GOP, Open/Closed : Closed
    Title : Happy Spook-Day Scooby-Doo! 2012
    Language : English
    Default : No
    Forced : No
    _STATISTICS_WRITING_APP : mkvmerge v7.5.0 ('Glass Culture') 64bit built on Jan 4 2015 16:48:44
    _STATISTICS_WRITING_DATE_UT : 2015-01-23 12:44:23
    _STATISTICS_TAGS : BPS DURATION NUMBER_OF_FRAMES NUMBER_OF_BYTES
    DURATION : 00:23:37.449000000
    NUMBER_OF_FRAMES : 33987
    NUMBER_OF_BYTES : 883593884
    Audio #1
    ID : 2
    Format : AC-3
    Format/Info : Audio Coding 3
    Mode extension : CM (complete main)
    Format settings, Endianness : Big
    Codec ID : A_AC3
    Duration : 23mn 37s
    Bit rate mode : Constant
    Bit rate : 256 Kbps
    Channel(s) : 2 channels
    Channel positions : Front: L R
    Sampling rate : 48.0 KHz
    Bit depth : 16 bits
    Compression mode : Lossy
    Stream size : 43.3 MiB (5%)
    Title : DUB Объединение "Русский Дубляж" 2002
    Language : Russian
    Default : Yes
    Forced : No
    _STATISTICS_WRITING_APP : mkvmerge v7.5.0 ('Glass Culture') 64bit built on Jan 4 2015 16:48:44
    _STATISTICS_WRITING_DATE_UT : 2015-01-23 12:44:23
    _STATISTICS_TAGS : BPS DURATION NUMBER_OF_FRAMES NUMBER_OF_BYTES
    DURATION : 00:23:37.408000000
    NUMBER_OF_FRAMES : 44294
    NUMBER_OF_BYTES : 34017792
    Audio #2
    ID : 3
    Format : AC-3
    Format/Info : Audio Coding 3
    Mode extension : CM (complete main)
    Format settings, Endianness : Big
    Codec ID : A_AC3
    Duration : 23mn 37s
    Bit rate mode : Constant
    Bit rate : 192 Kbps
    Channel(s) : 2 channels
    Channel positions : Front: L R
    Sampling rate : 48.0 KHz
    Bit depth : 16 bits
    Compression mode : Lossy
    Stream size : 32.4 MiB (3%)
    Title : DUB "Пифагор" 2012
    Language : Russian
    Default : No
    Forced : No
    _STATISTICS_WRITING_APP : mkvmerge v7.5.0 ('Glass Culture') 64bit built on Jan 4 2015 16:48:44
    _STATISTICS_WRITING_DATE_UT : 2015-01-23 12:44:23
    _STATISTICS_TAGS : BPS DURATION NUMBER_OF_FRAMES NUMBER_OF_BYTES
    DURATION : 00:23:27.530000000
    NUMBER_OF_FRAMES : 443
    NUMBER_OF_BYTES : 457146
    Audio #3
    ID : 4
    Format : AC-3
    Format/Info : Audio Coding 3
    Mode extension : CM (complete main)
    Format settings, Endianness : Big
    Codec ID : A_AC3
    Duration : 23mn 37s
    Bit rate mode : Constant
    Bit rate : 192 Kbps
    Channel(s) : 1 channel
    Channel positions : Front: C
    Sampling rate : 48.0 KHz
    Bit depth : 16 bits
    Compression mode : Lossy
    Stream size : 32.4 MiB (3%)
    Language : English
    Default : No
    Forced : No
    Text #1
    ID : 5
    Format : VobSub
    Muxing mode : zlib
    Codec ID : S_VOBSUB
    Codec ID/Info : The same subtitle format used on DVDs
    Language : Russian
    Default : No
    Forced : No
    _STATISTICS_WRITING_APP : mkvmerge v7.5.0 ('Glass Culture') 64bit built on Jan 4 2015 16:48:44
    _STATISTICS_WRITING_DATE_UT : 2015-01-23 12:44:23
    _STATISTICS_TAGS : BPS DURATION NUMBER_OF_FRAMES NUMBER_OF_BYTES
    DURATION : 00:22:35.763000000
    NUMBER_OF_FRAMES : 348
    NUMBER_OF_BYTES : 368035
    Text #2
    ID : 6
    Format : VobSub
    Muxing mode : zlib
    Codec ID : S_VOBSUB
    Codec ID/Info : The same subtitle format used on DVDs
    Language : English
    Default : No
    Forced : No
    Menu
    00:00:00.000 : en:Chapter 01
    00:01:01.703 : en:Chapter 02
    00:12:00.453 : en:Chapter 03
    00:23:05.317 : en:Chapter 04

    PAL

    General
    Unique ID : 220209451799509356999378441149377809889 (0xA5AACC37C1AC92849A63F79E27CA0DE1)
    Complete name : D:\РАЗДАЧА\1984 The New Scooby-Doo Mysteries DVDRemux\1x04 - 15.09.1984 - Рука Ужаса (The Hand of Horror) DVDRemux PAL [DUB ОРД] [ENG] {RUS} {ENG} (CHP).mkv
    Format : Matroska
    Format version : Version 4 / Version 2
    File size : 428 MiB
    Duration : 12mn 3s
    Overall bit rate mode : Variable
    Overall bit rate : 4 957 Kbps
    Movie name : 1x04 - The Hand of Horror
    Encoded date : UTC 2015-01-23 12:15:59
    Writing application : mkvmerge v7.5.0 ('Glass Culture') 64bit built on Jan 4 2015 16:48:44
    Writing library : libebml v1.3.1 + libmatroska v1.4.2
    Attachements : cover.png
    _STATISTICS_WRITING_APP : mkvmerge v7.5.0 ('Glass Culture') 64bit built on Jan 4 2015 16:48:44
    _STATISTICS_WRITING_DATE_UT : 2015-01-23 12:15:59
    _STATISTICS_TAGS : BPS DURATION NUMBER_OF_FRAMES NUMBER_OF_BYTES
    DURATION : 00:12:03.712000000
    NUMBER_OF_FRAMES : 22616
    NUMBER_OF_BYTES : 23158784
    Video
    ID : 1
    Format : MPEG Video
    Format version : Version 2
    Format profile : Main@Main
    Format settings, BVOP : Yes
    Format settings, Matrix : Custom
    Format settings, GOP : Variable
    Format settings, picture st : Frame
    Codec ID : V_MPEG2
    Codec ID/Info : MPEG 1 or 2 Video
    Duration : 12mn 3s
    Bit rate mode : Variable
    Bit rate : 4 410 Kbps
    Maximum bit rate : 9 800 Kbps
    Width : 720 pixels
    Height : 576 pixels
    Display aspect ratio : 4:3
    Frame rate mode : Constant
    Frame rate : 25.000 fps
    Standard : PAL
    Color space : YUV
    Chroma subsampling : 4:2:0
    Bit depth : 8 bits
    Scan type : Interlaced
    Scan order : Top Field First
    Compression mode : Lossy
    Bits/(Pixel*Frame) : 0.425
    Time code of first frame : 00:59:58:00
    Time code source : Group of pictures header
    Stream size : 380 MiB (89%)
    Title : Scooby-Doo! Ruh-roh Robot 2013
    Language : English
    Default : No
    Forced : No
    _STATISTICS_WRITING_APP : mkvmerge v7.5.0 ('Glass Culture') 64bit built on Jan 4 2015 16:48:44
    _STATISTICS_WRITING_DATE_UT : 2015-01-23 12:15:59
    _STATISTICS_TAGS : BPS DURATION NUMBER_OF_FRAMES NUMBER_OF_BYTES
    DURATION : 00:12:03.720000000
    NUMBER_OF_FRAMES : 18093
    NUMBER_OF_BYTES : 406446204
    Audio #1
    ID : 2
    Format : AC-3
    Format/Info : Audio Coding 3
    Mode extension : CM (complete main)
    Format settings, Endianness : Big
    Codec ID : A_AC3
    Duration : 12mn 3s
    Bit rate mode : Constant
    Bit rate : 256 Kbps
    Channel(s) : 2 channels
    Channel positions : Front: L R
    Sampling rate : 48.0 KHz
    Bit depth : 16 bits
    Compression mode : Lossy
    Stream size : 22.1 MiB (5%)
    Title : DUB Объединение "Русский Дубляж" 2002
    Language : Russian
    Default : Yes
    Forced : No
    _STATISTICS_WRITING_APP : mkvmerge v7.5.0 ('Glass Culture') 64bit built on Jan 4 2015 16:48:44
    _STATISTICS_WRITING_DATE_UT : 2015-01-23 12:15:59
    _STATISTICS_TAGS : BPS DURATION NUMBER_OF_FRAMES NUMBER_OF_BYTES
    DURATION : 00:12:03.712000000
    NUMBER_OF_FRAMES : 22616
    NUMBER_OF_BYTES : 17369088
    Audio #2
    ID : 3
    Format : AC-3
    Format/Info : Audio Coding 3
    Mode extension : CM (complete main)
    Format settings, Endianness : Big
    Codec ID : A_AC3
    Duration : 12mn 3s
    Bit rate mode : Constant
    Bit rate : 192 Kbps
    Channel(s) : 1 channel
    Channel positions : Front: C
    Sampling rate : 48.0 KHz
    Bit depth : 16 bits
    Compression mode : Lossy
    Stream size : 16.6 MiB (4%)
    Language : English
    Default : No
    Forced : No
    _STATISTICS_WRITING_APP : mkvmerge v7.5.0 ('Glass Culture') 64bit built on Jan 4 2015 16:48:44
    _STATISTICS_WRITING_DATE_UT : 2015-01-23 12:15:59
    _STATISTICS_TAGS : BPS DURATION NUMBER_OF_FRAMES NUMBER_OF_BYTES
    DURATION : 00:11:05.871000000
    NUMBER_OF_FRAMES : 148
    NUMBER_OF_BYTES : 160011
    Text #1
    ID : 4
    Format : VobSub
    Muxing mode : zlib
    Codec ID : S_VOBSUB
    Codec ID/Info : The same subtitle format used on DVDs
    Language : Russian
    Default : No
    Forced : No
    _STATISTICS_WRITING_APP : mkvmerge v7.5.0 ('Glass Culture') 64bit built on Jan 4 2015 16:48:44
    _STATISTICS_WRITING_DATE_UT : 2015-01-23 12:15:59
    _STATISTICS_TAGS : BPS DURATION NUMBER_OF_FRAMES NUMBER_OF_BYTES
    DURATION : 00:11:01.751000000
    NUMBER_OF_FRAMES : 182
    NUMBER_OF_BYTES : 209970
    Text #2
    ID : 5
    Format : VobSub
    Muxing mode : zlib
    Codec ID : S_VOBSUB
    Codec ID/Info : The same subtitle format used on DVDs
    Language : English
    Default : No
    Forced : No
    Menu
    00:00:00.000 : en:Chapter 01
    00:00:59.840 : en:Chapter 02
    00:11:33.500 : en:Chapter 02
    [www.cybertorrent.ru].t2158.torrent 
    Торрент: Зарегистрирован [ 2018-02-16 11:35 ] · 5ED84024CEF584513C7E3E3D1D13D510026938AA

    Скачать .torrent

    Скачать

    30 KB

    Статус: проверено
    Скачан: 0 раз
    Размер: 5,56 GB
  • Профиль [ЛС]
    Показать сообщения:    

    Текущее время: 11-Дек 00:28

    Часовой пояс: UTC ± 0



    Вы не можете начинать темы
    Вы не можете отвечать на сообщения
    Вы не можете редактировать свои сообщения
    Вы не можете удалять свои сообщения
    Вы не можете голосовать в опросах
    Вы не можете прикреплять файлы к сообщениям
    Вы можете скачивать файлы
    Torrents24.ru открытый BitTorrent Torrents24.pl открытый BitTorrent CyberTorrent.ru открытый BitTorrent BtList.ru рейтинг BitTorrent трекеров Яндекс.Метрика