BitTorrent клиенты



Воздушная битва гигантских монстров: Гамера против Гяоса / Giant Monster Midair Battle: Gamera vs. Gyaos / (Нориаки Юаса / Noriaki Yuasa) [1967, Япония, фантастика, ужасы, приключения, WEB-DL 720p] VO (Emslie) + Sub Rus, Eng + Original Jap

Ответить на тему
 
Автор Сообщение

Keeper ®

Пол: Не указан

Стаж: 1 год

Сообщений: 499

Создавать темы 07-Фев-2018 20:48

[Цитировать]

Воздушная битва гигантских монстров: Гамера против Гяоса / Giant Monster Midair Battle: Gamera vs. Gyaos / Daikaijū Kūchūsen: Gamera Tai Gyaosu
Страна: Япония
Студия: Daiei Studios, Toei Company
Жанр: фантастика, ужасы, приключения
Год выпуска: 1967
Продолжительность: 01:26:21
Перевод: Одноголосый закадровый Emslie
Субтитры: русские, английские
Оригинальная аудиодорожка: японский
Режиссер: Нориаки Юаса / Noriaki Yuasa
В ролях: Кодзиро Хонго, Рейко Касахара, Таро Маруи, Ёсио Китахара, Акира Нацуки, Китидзиро Уэда, Фудзио Мураками и др.
Описание: Из-за извержения вулканов от долгого сна пробудился древний монстр Гяос. Это существо, похожее на огромную летучую мышь, начало нападать на близлежащую деревню и мешать строительству скоростной автомагистрали. Когда монстр стал нападать на крупные города, людям пришлось придумывать планы, как остановить его. Однако, им не везло. Но на помощь пришла гигантская суперчерепаха Гамера, за которой теперь навсегда установился титул друга всех детей и защитницы Японии.
II Сэмпл II IMDB II
Релиз группа:

Тип релиза: WEB-DL 720p
Контейнер: MKV
Видео: AVC / 1280x544 / 2.35:1 / 23.976fps / Bit rate 6624Kbps
Аудио 1: AC3 / 48.0 KHz / 2ch. / 192kbps / rus / VO / Emslie
Аудио 2: AC3 / 48.0 KHz / 2ch. / 192kbps / eng
Аудио 3: AC3 / 48.0 KHz / 2ch. / 192kbps / jap
Формат субтитров: softsub (SRT)

MediaInfo

Общее
Уникальный идентификатор : 196972819352037165111915985294330860109 (0x942F95C93F6AF74AABD6FCEDBE8E924D)
Полное имя : G:\!!!_torrent\Gamera.vs.Gyaos.1967.WEB-DL.720p_by_vedigo.mkv
Формат : Matroska
Версия формата : Version 4 / Version 2
Размер файла : 4,35 Гбайт
Продолжительность : 1 ч. 26 м.
Режим общего битрейта : Переменный
Общий поток : 7205 Кбит/сек
Название фильма : Gamera.vs.Gyaos.1967.WEB-DL.720p_by_vedigo
Дата кодирования : UTC 2015-12-30 00:57:19
Программа кодирования : mkvmerge v8.6.1 ('Flying') 64bit
Библиотека кодирования : libebml v1.3.3 + libmatroska v1.4.4
Видео
Идентификатор : 1
Формат : AVC
Формат/Информация : Advanced Video Codec
Профиль формата : High@L4
Параметр CABAC формата : Да
Параметр ReFrames формата : 4 кадра
Идентификатор кодека : V_MPEG4/ISO/AVC
Продолжительность : 1 ч. 26 м.
Вид битрейта : Переменный
Битрейт : 6627 Кбит/сек
Максимальный битрейт : 40,0 Мбит/сек
Ширина : 1280 пикселей
Высота : 544 пикселя
Соотношение сторон : 2,35:1
Соотношение сторон в оригинале : 2,35:1
Режим частоты кадров : Постоянный
Частота кадров : 23,976 (24000/1001) кадра/сек
Цветовое пространство : YUV
Субдискретизация насыщенности : 4:2:0
Битовая глубина : 8 бит
Тип развёртки : Прогрессивная
Бит/(Пиксели*Кадры) : 0.397
Размер потока : 4,00 Гбайт (92%)
Заголовок : Gamera.vs.Gyaos.1967.WEB-DL.720p_by_vedigo
Default : Да
Forced : Нет
Цветовой диапазон : Limited
Основные цвета : BT.709
Характеристики трансфера : BT.709
Коэффициенты матрицы : BT.709
Аудио #1
Идентификатор : 2
Формат : AC-3
Формат/Информация : Audio Coding 3
Расширение режима : CM (complete main)
Параметр Endianness формата : Big
Идентификатор кодека : A_AC3
Продолжительность : 1 ч. 26 м.
Вид битрейта : Постоянный
Битрейт : 192 Кбит/сек
Каналы : 2 канала
Расположение каналов : Front: L R
Частота : 48,0 КГц
Частота кадров : 31,250 кадров/сек (1536 spf)
Метод сжатия : С потерями
Размер потока : 119 Мбайт (3%)
Заголовок : VO @ Emslie
Язык : Russian
Default : Да
Forced : Нет
Аудио #2
Идентификатор : 3
Формат : AC-3
Формат/Информация : Audio Coding 3
Расширение режима : CM (complete main)
Параметр Endianness формата : Big
Идентификатор кодека : A_AC3
Продолжительность : 1 ч. 26 м.
Вид битрейта : Постоянный
Битрейт : 192 Кбит/сек
Каналы : 2 канала
Расположение каналов : Front: L R
Частота : 48,0 КГц
Частота кадров : 31,250 кадров/сек (1536 spf)
Метод сжатия : С потерями
Размер потока : 119 Мбайт (3%)
Заголовок : eng
Язык : English
Default : Нет
Forced : Нет
Аудио #3
Идентификатор : 4
Формат : AC-3
Формат/Информация : Audio Coding 3
Расширение режима : CM (complete main)
Параметр Endianness формата : Big
Идентификатор кодека : A_AC3
Продолжительность : 1 ч. 26 м.
Вид битрейта : Постоянный
Битрейт : 192 Кбит/сек
Каналы : 2 канала
Расположение каналов : Front: L R
Частота : 48,0 КГц
Частота кадров : 31,250 кадров/сек (1536 spf)
Метод сжатия : С потерями
Размер потока : 119 Мбайт (3%)
Заголовок : original
Язык : Japanese
Default : Нет
Forced : Нет
Текст #1
Идентификатор : 5
Формат : UTF-8
Идентификатор кодека : S_TEXT/UTF8
Идентификатор кодека/Информация : UTF-8 Plain Text
Продолжительность : 1 ч. 26 м.
Битрейт : 51 бит/сек
Count of elements : 593
Размер потока : 32,3 Кбайт (0%)
Заголовок : subtitle rus
Язык : Russian
Default : Нет
Forced : Нет
Текст #2
Идентификатор : 6
Формат : UTF-8
Идентификатор кодека : S_TEXT/UTF8
Идентификатор кодека/Информация : UTF-8 Plain Text
Продолжительность : 1 ч. 26 м.
Битрейт : 26 бит/сек
Count of elements : 660
Размер потока : 16,9 Кбайт (0%)
Заголовок : subtitle eng
Язык : English
Default : Нет
Forced : Нет
Меню
00:00:00.000 : en:(01)00:00:00:000
00:03:44.266 : en:(02)00:03:44:266
00:10:08.866 : en:(03)00:10:08:866
00:17:26.632 : en:(04)00:17:26:632
00:27:01.132 : en:(05)00:27:01:132
00:35:32.232 : en:(06)00:35:32:232
00:43:26.065 : en:(07)00:43:26:065
00:51:29.631 : en:(08)00:51:29:631
00:57:55.397 : en:(09)00:57:55:397
01:09:52.030 : en:(10)01:09:52:030
01:14:49.563 : en:(11)01:14:49:563
01:24:15.929 : en:(12)01:24:15:929
01:26:16.762 : en:(13)01:26:16:762

Скриншоты


[Профиль] [ЛС]
Показать сообщения:    
Ответить на тему

Текущее время: 23-Фев 00:07

Часовой пояс: UTC + 3



Вы не можете начинать темы
Вы не можете отвечать на сообщения
Вы не можете редактировать свои сообщения
Вы не можете удалять свои сообщения
Вы не можете голосовать в опросах
Вы не можете прикреплять файлы к сообщениям
Вы можете скачивать файлы