Статистика раздачи
Размер:  9,6 GB   |    Зарегистрирован:  8 месяцев 4 дня   |    Скачан:  0 раз

Полного источника не было: Никогда

 
   
 
 

martin ®

Пол:
Не указан
Стаж:
8 месяцев 5 дней
Сообщений:
47

Аватар.Легенда о Корре / Avatar.The Legend Of Korra
Страна: США
Жанр: мультсериал, приключения, семейный, фэнтези
Продолжительность: ~ 22 минуты
Год выпуска: 2014
Перевод: Профессиональный (дублированный)
Русские субтитры: нет
Режиссёр: Michael Dante DiMartino / Майкл Данте ДиМартино Bryan Konietzko / Брайан Кониецко
Описание: Действие сериала разворачивается примерно через 70 лет после победы аватара Аанга над Лордом Огня в последней серии мультсериала «Аватар: Легенда об Аанге». Корра, уже овладевшая магией воды, земли и огня должна обучиться последнему элементу — магии воздуха. В этом ей может помочь только сын Аанга и Катары — Тензин. Корра живёт в «Республиканском городе». Республиканский город — это место, где вместе живут люди всех наций. Героям мультсериала предстоит борьба с преступностью и с готовящимся восстанием против магов.
Список серий:
Глава 1: После стольких лет (After All These Years)
Глава 2: Одинокая Корра (Korra Alone)
Глава 3: Коронация (The Coronation)
Глава 4: Зов (The Calling)
Глава 5: Враг у ворот (Enemy at the Gates)
Глава 6: Битва за Заофу (Battle of Zaofu)
Глава 7: Воссоединение ( Reunion)
Глава 8: Воспоминания (Remembrances)
Глава 9: По ту сторону зарослей (Beyond the Wilds)
Глава 10: Операция "Бейфонг" (Operation "Beifong")
Глава 11: Гамбит Кувиры (Kuviras Gambit)
Глава 12: День Колосса (Day of the Colossus)
Глава 13: Последняя битва (The Last Stand)
Ссылка на предыдущие и альтернативные раздачи: http://cybertorrent.ru/search.php?nm=%CB%E5%E3%E5%ED%E4%E0+%EE+%CA%EE%F0%F0%E5
Семпл: http://multi-up.com/1026595
Качество: WEB-DL 720p
Формат: MKV
Видео: AVC,1280x718,23.976 fps,~4000 kbps
Аудио: Русский,AC-3,48 kHz,2 ch,192 kbps
Аудио 2: English,AC-3,48 kHz,6 ch,384 kbps
Субтитры: отсутствуют

Подробные технические данные

Общее
Уникальный идентификатор : 190744594068102859372502577271780276202 (0x8F80129247FFEEA7B4657AB332D5F7EA)
Полное имя : E:\The.Legend.Of.Korra.S04.WEB-DL.720p\The.Legend.of.Korra.S04E01.DUB.ENG.mkv
Формат : Matroska
Версия формата : Version 4 / Version 2
Размер файла : 762 Мбайт
Продолжительность : 22 м.
Общий поток : 4655 Кбит/сек
Название фильма : The Legend of Korra S04E01 After All These Years
Дата кодирования : UTC 2015-01-14 13:32:08
Программа кодирования : mkvmerge v7.5.0 ('Glass Culture') 32bit built on Jan 4 2015 16:37:25
Библиотека кодирования : libebml v1.3.1 + libmatroska v1.4.2
DURATION : 00:22:52.384000000
NUMBER_OF_FRAMES : 42887
NUMBER_OF_BYTES : 32937216
_STATISTICS_WRITING_APP : mkvmerge v7.5.0 ('Glass Culture') 32bit built on Jan 4 2015 16:37:25
_STATISTICS_WRITING_DATE_UTC : 2015-01-14 13:32:08
_STATISTICS_TAGS : BPS DURATION NUMBER_OF_FRAMES NUMBER_OF_BYTES
Видео
Идентификатор : 1
Формат : AVC
Формат/Информация : Advanced Video Codec
Профиль формата : High@L3.1
Параметр CABAC формата : Нет
Параметр ReFrames формата : 2 кадра
Идентификатор кодека : V_MPEG4/ISO/AVC
Продолжительность : 22 м.
Битрейт : 3987 Кбит/сек
Ширина : 1280 пикселей
Высота : 718 пикселей
Соотношение сторон : 16:9
Режим частоты кадров : Постоянный
Частота кадров : 23,976 кадра/сек
Цветовое пространство : YUV
Субдискретизация насыщенности : 4:2:0
Битовая глубина : 8 бит
Тип развёртки : Прогрессивная
Бит/(Пиксели*Кадры) : 0.181
Размер потока : 652 Мбайт (86%)
Заголовок : H.264
Default : Да
Forced : Нет
Основные цвета : BT.709
Характеристики трансфера : BT.709
Коэффициенты матрицы : BT.709
colour_range : Limited
Аудио #1
Идентификатор : 2
Формат : AC-3
Формат/Информация : Audio Coding 3
Профиль формата : Dolby Digital
Расширение режима : CM (complete main)
Параметр Endianness формата : Big
Идентификатор кодека : A_AC3
Продолжительность : 22 м.
Вид битрейта : Постоянный
Битрейт : 192 Кбит/сек
Каналы : 2 канала
Расположение каналов : Front: L R
Частота : 48,0 КГц
Битовая глубина : 16 бит
Метод сжатия : С потерями
Размер потока : 31,4 Мбайт (4%)
Заголовок : Дубляж Никелодеон
Язык : Russian
Default : Да
Forced : Нет
Аудио #2
Идентификатор : 3
Формат : AC-3
Формат/Информация : Audio Coding 3
Расширение режима : CM (complete main)
Параметр Endianness формата : Big
Идентификатор кодека : A_AC3
Продолжительность : 22 м.
Вид битрейта : Постоянный
Битрейт : 384 Кбит/сек
Каналы : 6 каналов
Расположение каналов : Front: L C R, Side: L R, LFE
Частота : 48,0 КГц
Битовая глубина : 16 бит
Метод сжатия : С потерями
Размер потока : 62,8 Мбайт (8%)
Заголовок : DD5.1
Язык : English
Default : Нет
Forced : Нет

Скриншоты




За запись и сведение русской дороги огромное спасибо Tray_Max,за 10 серию спасибо mer-ci
[www.cybertorrent.ru].t2147.torrent 
Торрент: Зарегистрирован [ 2018-02-16 11:35 ] · A80A18DCE742A52B51F4D6041AE046EFBFAC2EA8

Скачать .torrent

Скачать

25 KB

Статус: проверено
Скачан: 0 раз
Размер: 9,6 GB
Профиль [ЛС]
Показать сообщения:    

Текущее время: 20-Окт 13:50

Часовой пояс: UTC ± 0



Вы не можете начинать темы
Вы не можете отвечать на сообщения
Вы не можете редактировать свои сообщения
Вы не можете удалять свои сообщения
Вы не можете голосовать в опросах
Вы не можете прикреплять файлы к сообщениям
Вы можете скачивать файлы
Torrents24.ru открытый BitTorrent Torrents24.pl открытый BitTorrent CyberTorrent.ru открытый BitTorrent BtList.ru рейтинг BitTorrent трекеров Яндекс.Метрика