BitTorrent клиенты



Воспоминания меча / Memories of the Sword / Hyeomnyeo: Kar-ui gi-eok (Пак Хен Сик / Heung-Sik Park) [2015, Южная Корея, драма, приключения, восточные единоборства, BDRip 720p] Sub Rus + Original Kor

Ответить на тему
 
Автор Сообщение

Keeper ®

Пол: Не указан

Стаж: 1 год

Сообщений: 499

Создавать темы 07-Фев-2018 20:49

[Цитировать]

Воспоминания меча / Memories of the Sword / Hyeomnyeo: Kar-ui gi-eok
Страна: Южная Корея
Жанр: драма, приключения, восточные единоборства
Год выпуска: 2015
Продолжительность: 02:00:18
Перевод: Субтитры (indiotka)
Субтитры: русские, английские
Режиссер: Пак Хен Сик / Heung-Sik Park
В ролях: Ли Бен Хон, Чон До Ен, Ким Го Ын, Ли Кен Ен, Ким Тхэ У, Ли Чжун Хо
Описание: Действие фильма происходит в средневековой Корее. Юная девушка, овладев искусством меча, мстит за смерть своих родителей. Только дается ей месть непросто. Мешают любовь и неопытность. А вот противник, напротив, очень силен и опасен.
Сэмпл: http://multi-up.com/1079987
Качество видео: BDRip
Формат видео: MKV
Видео: MPEG4 Video (H264), 1920x808, 24fps, 8 898 Kbps
Аудио: DTS, 48000Hz, 6ch, 1536kbps
Формат субтитров: softsub (SRT)

MediaInfo

Format : Matroska
Format version : Version 4 / Version 2
File size : 8.74 GiB
Duration : 2h 0mn
Overall bit rate : 10.4 Mbps
Encoded date : UTC 2015-12-15 06:48:21
Writing application : mkvmerge v8.3.0 ('Over the Horizon') 64bit
Writing library : libebml v1.3.1 + libmatroska v1.4.2
DURATION : 01:55:19.708000000
NUMBER_OF_FRAMES : 835
NUMBER_OF_BYTES : 19452
_STATISTICS_WRITING_APP : mkvmerge v8.3.0 ('Over the Horizon') 64bit
_STATISTICS_WRITING_DATE_UTC : 2015-12-15 06:48:21
_STATISTICS_TAGS : BPS DURATION NUMBER_OF_FRAMES NUMBER_OF_BYTES
Video
ID : 1
Format : AVC
Format/Info : Advanced Video Codec
Format profile : High@L4.1
Format settings, CABAC : Yes
Format settings, ReFrames : 5 frames
Codec ID : V_MPEG4/ISO/AVC
Duration : 2h 0mn
Bit rate : 8 898 Kbps
Width : 1 920 pixels
Height : 808 pixels
Display aspect ratio : 2.40:1
Frame rate mode : Constant
Frame rate : 24.000 fps
Color space : YUV
Chroma subsampling : 4:2:0
Bit depth : 8 bits
Scan type : Progressive
Bits/(Pixel*Frame) : 0.239
Stream size : 7.30 GiB (84%)
Writing library : x264 core 148 r2638 7599210
Encoding settings : cabac=1 / ref=5 / deblock=1:0:0 / analyse=0x3:0x133 / me=umh / subme=7 / psy=1 / psy_rd=1.00:0.00 / mixed_ref=1 / me_range=16 / chroma_me=1 / trellis=1 / 8x8dct=1 / cqm=0 / deadzone=21,11 / fast_pskip=0 / chroma_qp_offset=-2 / threads=12 / lookahead_threads=2 / sliced_threads=0 / nr=0 / decimate=1 / interlaced=0 / bluray_compat=0 / constrained_intra=0 / bframes=3 / b_pyramid=2 / b_adapt=1 / b_bias=0 / direct=1 / weightb=1 / open_gop=0 / weightp=2 / keyint=250 / keyint_min=23 / scenecut=40 / intra_refresh=0 / rc_lookahead=40 / rc=2pass / mbtree=1 / bitrate=8898 / ratetol=1.0 / qcomp=0.60 / qpmin=0 / qpmax=69 / qpstep=4 / cplxblur=20.0 / qblur=0.5 / ip_ratio=1.40 / aq=1:1.00
Language : Korean
Default : Yes
Forced : No
DURATION : 02:00:18.131000000
NUMBER_OF_FRAMES : 173235
NUMBER_OF_BYTES : 8021447837
_STATISTICS_WRITING_APP : mkvmerge v8.3.0 ('Over the Horizon') 64bit
_STATISTICS_WRITING_DATE_UTC : 2015-12-15 06:48:21
_STATISTICS_TAGS : BPS DURATION NUMBER_OF_FRAMES NUMBER_OF_BYTES
Audio
ID : 2
Format : DTS
Format/Info : Digital Theater Systems
Mode : 16
Format settings, Endianness : Big
Codec ID : A_DTS
Duration : 2h 0mn
Bit rate mode : Constant
Bit rate : 1 509 Kbps
Channel(s) : 6 channels
Channel positions : Front: L C R, Side: L R, LFE
Sampling rate : 48.0 KHz
Bit depth : 24 bits
Compression mode : Lossy
Stream size : 1.27 GiB (15%)
Language : Korean
Default : Yes
Forced : No
Text
ID : 3
Format : UTF-8
Codec ID : S_TEXT/UTF8
Codec ID/Info : UTF-8 Plain Text
Title : English-Forced
Language : English
Default : Yes
Forced : Yes
Menu
00:00:00.000 : en:00:00:00.000
00:09:38.750 : en:00:09:38.750
00:14:37.583 : en:00:14:37.583
00:26:44.542 : en:00:26:44.542
00:33:24.083 : en:00:33:24.083
00:39:30.208 : en:00:39:30.208
00:51:34.875 : en:00:51:34.875
01:01:52.292 : en:01:01:52.292
01:07:51.458 : en:01:07:51.458
01:18:00.375 : en:01:18:00.375
01:23:30.875 : en:01:23:30.875
01:35:46.500 : en:01:35:46.500
01:43:03.292 : en:01:43:03.292
01:54:35.292 : en:01:54:35.292

Скриншот c названием фильма

Скриншоты

Пример субтитров

1
00:00:44,578 --> 00:00:46,683
"LOTTE ENTERTAINMENT
ПРЕДСТАВЛЯЕТ"
2
00:00:47,948 --> 00:00:50,019
"ПРОИЗВОДСТВО
TPS COMPANY"
3
00:01:15,442 --> 00:01:23,442
"ЭРА КОРЁ: КОГДА ЧАЙ, ЯРОСТЬ
И МЕЧИ ПРАВИЛИ МИРОМ"
4
00:01:25,285 --> 00:01:27,060
Хон И!
5
00:01:28,589 --> 00:01:29,795
Хон И!
6
00:01:59,419 --> 00:02:04,164
Ли Бен Хон
7
00:02:06,760 --> 00:02:11,834
Чон До Ен
8
00:02:14,468 --> 00:02:19,679
Ким Го Ын
9
00:02:21,875 --> 00:02:26,722
Ли Кен Ен, Ким Тхэ У, Ли Чжун Хо
10
00:03:15,762 --> 00:03:17,435
У меня получилось!
11
00:03:20,834 --> 00:03:22,711
Ты что, перепрыгнула?
12
00:03:23,236 --> 00:03:24,806
Ты смогла?!
13
00:03:26,640 --> 00:03:28,142
Я же выросла!
14
00:03:28,341 --> 00:03:30,514
А как насчет побороться?
15
00:03:30,744 --> 00:03:32,348
Ты до меня не дорос!
16
00:03:32,379 --> 00:03:34,017
Вернись!
17
00:03:34,881 --> 00:03:36,861
А если мама все узнает!
18
00:03:37,551 --> 00:03:39,827
Не переживай! Я скоро вернусь!
19
00:04:16,423 --> 00:04:19,097
Вор! Держите его!
20
00:04:25,665 --> 00:04:27,144
Давай!
21
00:04:33,907 --> 00:04:35,147
Что за негодник!
22
00:05:05,238 --> 00:05:06,649
Ух ты!
23
00:05:15,115 --> 00:05:16,253
Так тебе!
24
00:05:59,526 --> 00:06:01,369
Он красавчик.
25
00:06:02,796 --> 00:06:04,036
Двадцать четыре!
26
00:06:04,097 --> 00:06:05,440
Победа!
27
00:07:10,430 --> 00:07:12,706
Двадцать четыре! Победа!
28
00:07:15,335 --> 00:07:16,006
Стой!
29
00:07:16,036 --> 00:07:17,344
Кто ты?
30
00:07:17,537 --> 00:07:18,709
Какой номер?
31
00:07:18,738 --> 00:07:20,718
Какая разница? Я здесь, чтобы биться!
32
00:07:20,974 --> 00:07:22,612
Уведите его!
[Профиль] [ЛС]
Показать сообщения:    
Ответить на тему

Текущее время: 20-Фев 07:22

Часовой пояс: UTC + 3



Вы не можете начинать темы
Вы не можете отвечать на сообщения
Вы не можете редактировать свои сообщения
Вы не можете удалять свои сообщения
Вы не можете голосовать в опросах
Вы не можете прикреплять файлы к сообщениям
Вы можете скачивать файлы