BitTorrent клиенты



Я и 23 раба / Tokyo Slave / Doreiku: Boku to 23-nin no dorei (Сакичи Сато / Sakichi Satô) [2014, Япония, детектив, триллер, BDRip 1080p] DVO (DeadSno & den904) + Sub Eng + Original Jap

Ответить на тему
 
Автор Сообщение

Keeper ®

Пол: Не указан

Стаж: 1 год

Сообщений: 499

Создавать темы 07-Фев-2018 20:49

[Цитировать]

Я и 23 раба / Tokyo Slave / Doreiku: Boku to 23-nin no dorei
Страна: Япония
Студия: Excellent Film
Жанр: детектив, триллер
Год выпуска: 2014
Продолжительность: 01:40:13
Перевод: Любительский (двухголосый закадровый) DeadSno & den904
Субтитры: английские
Оригинальная аудиодорожка: Японский
Режиссер: Сакичи Сато / Sakichi Satô
В ролях: Саяка Акимото, Каната Хонго, Удай Ивасаки, Юки Кубота, Юсукэ Макио, Хикару Осава, Ёсуке Саито, Миюки Торий, Юки Ямада...
Описание: 24 человека играют в ожесточенную игру на выживание по своим собственным причинам. Каждый участник носит специальное устройство SCM, позволяющее превращать других игроков в своих рабов.
II Сэмпл II IMDB II
Релиз группа:

Тип релиза: BDRip 1080p
Контейнер: MKV
Видео: AVC / 1920x1080 / 16:9 / 23.976fps / Bit rate 16000Kbps / High@L4.1
Аудио 1: AC3 / 48.0 KHz / 2ch. / 192kbps / rus / DVO / 2D
Аудио 2: DTS / 48.0 KHz / 6ch. / 1509kbps / 16bit / jap
Формат субтитров: softsub (SRT)

MediaInfo

Общее
Уникальный идентификатор : 251923420788369606117243023899455672861 (0xBD86AF9C4FD1B787B57AE3819F70521D)
Полное имя : G:\!!!_torrent\Tokyo.Slaves.2014.BDRip.1080p_by_vedigo.mkv
Формат : Matroska
Версия формата : Version 4 / Version 2
Размер файла : 12,4 Гбайт
Продолжительность : 1 ч. 40 м.
Общий поток : 17,7 Мбит/сек
Название фильма : Tokyo.Slaves.2014.BDRip.1080p_by_vedigo
Дата кодирования : UTC 2015-12-18 06:55:52
Программа кодирования : mkvmerge v8.6.1 ('Flying') 64bit
Библиотека кодирования : libebml v1.3.3 + libmatroska v1.4.4
Видео
Идентификатор : 1
Формат : AVC
Формат/Информация : Advanced Video Codec
Профиль формата : High@L4.1
Параметр CABAC формата : Да
Параметр ReFrames формата : 4 кадра
Идентификатор кодека : V_MPEG4/ISO/AVC
Продолжительность : 1 ч. 40 м.
Битрейт : 16,0 Мбит/сек
Ширина : 1920 пикселей
Высота : 1080 пикселей
Соотношение сторон : 16:9
Режим частоты кадров : Постоянный
Частота кадров : 23,976 (24000/1001) кадра/сек
Цветовое пространство : YUV
Субдискретизация насыщенности : 4:2:0
Битовая глубина : 8 бит
Тип развёртки : Прогрессивная
Бит/(Пиксели*Кадры) : 0.322
Размер потока : 11,2 Гбайт (90%)
Заголовок : Tokyo.Slaves.2014.BDRip.1080p_by_vedigo
Библиотека кодирования : x264 core 148 r2638 7599210
Настройки программы : cabac=1 / ref=4 / deblock=1:-3:-3 / analyse=0x3:0x133 / me=umh / subme=11 / psy=0 / mixed_ref=1 / me_range=64 / chroma_me=1 / trellis=2 / 8x8dct=1 / cqm=0 / deadzone=21,11 / fast_pskip=0 / chroma_qp_offset=0 / threads=12 / lookahead_threads=2 / sliced_threads=0 / nr=0 / decimate=1 / interlaced=0 / bluray_compat=0 / constrained_intra=0 / bframes=8 / b_pyramid=2 / b_adapt=2 / b_bias=0 / direct=3 / weightb=1 / open_gop=0 / weightp=2 / keyint=250 / keyint_min=23 / scenecut=40 / intra_refresh=0 / rc_lookahead=40 / rc=2pass / mbtree=0 / bitrate=16000 / ratetol=1.0 / qcomp=0.60 / qpmin=0 / qpmax=69 / qpstep=4 / cplxblur=20.0 / qblur=0.5 / vbv_maxrate=50000 / vbv_bufsize=62500 / nal_hrd=none / filler=0 / ip_ratio=1.40 / pb_ratio=1.30 / aq=1:0.90
Default : Да
Forced : Нет
Аудио #1
Идентификатор : 2
Формат : AC-3
Формат/Информация : Audio Coding 3
Расширение режима : CM (complete main)
Параметр Endianness формата : Big
Идентификатор кодека : A_AC3
Продолжительность : 1 ч. 40 м.
Вид битрейта : Постоянный
Битрейт : 192 Кбит/сек
Каналы : 2 канала
Расположение каналов : Front: L R
Частота : 48,0 КГц
Частота кадров : 31,250 кадров/сек (1536 spf)
Метод сжатия : С потерями
Размер потока : 138 Мбайт (1%)
Заголовок : DVO @ 2D
Язык : Russian
Default : Да
Forced : Нет
Аудио #2
Идентификатор : 3
Формат : DTS
Формат/Информация : Digital Theater Systems
Режим : 16
Параметр Endianness формата : Big
Идентификатор кодека : A_DTS
Продолжительность : 1 ч. 40 м.
Вид битрейта : Постоянный
Битрейт : 1509 Кбит/сек
Каналы : 6 каналов
Расположение каналов : Front: L C R, Side: L R, LFE
Частота : 48,0 КГц
Частота кадров : 93,750 кадра/сек (512 spf)
Битовая глубина : 16 бит
Метод сжатия : С потерями
Размер потока : 1,06 Гбайт (9%)
Заголовок : original
Язык : Japanese
Default : Нет
Forced : Нет
Текст
Идентификатор : 4
Формат : UTF-8
Идентификатор кодека : S_TEXT/UTF8
Идентификатор кодека/Информация : UTF-8 Plain Text
Продолжительность : 1 ч. 36 м.
Битрейт : 37 бит/сек
Count of elements : 1080
Размер потока : 26,3 Кбайт (0%)
Заголовок : eng
Язык : English
Default : Нет
Forced : Нет
Меню
00:00:00.000 : en:00:00:00.000
00:07:30.700 : en:00:07:30.700
00:14:44.092 : en:00:14:44.092
00:25:39.705 : en:00:25:39.705
00:32:12.764 : en:00:32:12.764
00:42:06.691 : en:00:42:06.691
00:51:46.937 : en:00:51:46.937
00:59:39.493 : en:00:59:39.493
01:05:33.930 : en:01:05:33.930
01:14:34.720 : en:01:14:34.720
01:24:59.928 : en:01:24:59.928
01:33:20.345 : en:01:33:20.345

Скриншоты


Сравнение с исходником





x264 info

raw [info]: 1920x1080p 1:1 @ 24000/1001 fps (cfr)
x264 [info]: using SAR=1/1
x264 [info]: using cpu capabilities: MMX2 SSE2Fast SSSE3 SSE4.2 AVX
x264 [info]: profile High, level 4.1
x264 [info]: frame I:955 Avg QP:14.33 size:258919
x264 [info]: frame P:30106 Avg QP:16.01 size:141996
x264 [info]: frame B:113109 Avg QP:18.59 size: 66292
x264 [info]: consecutive B-frames: 2.4% 3.6% 6.6% 6.8% 5.3% 70.8% 2.3% 0.7% 1.5%
x264 [info]: mb I I16..4: 21.1% 62.3% 16.6%
x264 [info]: mb P I16..4: 12.8% 31.8% 5.9% P16..4: 19.6% 14.4% 5.9% 0.5% 0.0% skip: 9.0%
x264 [info]: mb B I16..4: 5.4% 8.9% 1.1% B16..8: 43.2% 18.0% 1.8% direct: 5.0% skip:16.7% L0:48.2% L1:32.3% BI:19.5%
x264 [info]: 8x8 transform intra:60.3% inter:70.1%
x264 [info]: direct mvs spatial:97.6% temporal:2.4%
x264 [info]: coded y,uvDC,uvAC intra: 81.0% 86.9% 65.1% inter: 40.0% 44.7% 9.1%
x264 [info]: i16 v,h,dc,p: 15% 11% 50% 25%
x264 [info]: i8 v,h,dc,ddl,ddr,vr,hd,vl,hu: 17% 11% 48% 4% 3% 4% 3% 5% 5%
x264 [info]: i4 v,h,dc,ddl,ddr,vr,hd,vl,hu: 24% 15% 41% 3% 4% 4% 3% 3% 3%
x264 [info]: i8c dc,h,v,p: 46% 24% 18% 12%
x264 [info]: Weighted P-Frames: Y:1.9% UV:1.0%
x264 [info]: ref P L0: 49.3% 9.6% 26.8% 13.2% 1.1% 0.0%
x264 [info]: ref B L0: 89.2% 8.3% 2.5%
x264 [info]: ref B L1: 96.2% 3.8%
x264 [info]: kb/s:15992.40
[Профиль] [ЛС]
Показать сообщения:    
Ответить на тему

Текущее время: 23-Фев 00:06

Часовой пояс: UTC + 3



Вы не можете начинать темы
Вы не можете отвечать на сообщения
Вы не можете редактировать свои сообщения
Вы не можете удалять свои сообщения
Вы не можете голосовать в опросах
Вы не можете прикреплять файлы к сообщениям
Вы можете скачивать файлы