Статистика раздачи
Размер:  11,7 GB   |    Зарегистрирован:  8 месяцев 1 день   |    Скачан:  0 раз

Полного источника не было: Никогда

 
   
 
 

martin ®

Пол:
Не указан
Стаж:
8 месяцев 2 дня
Сообщений:
47

Раздача с субтитрами. Раздача WEB-DLRipАватар: Легенда о Корре / The Legend of Korra- Страна: США
Жанр: мультсериал, приключения, семейный, фэнтези
Продолжительность: ~ 22 минуты
Год выпуска: 2014
Перевод: Профессиональный (полное дублирование), Никелодеон Россия
Формат субтитров: softsub (korra-avatar)
Оригинальная аудиодорожка: английская-Запись и сведение русской дорожки: TRAY_MAX
Семпл-Режиссёр:
Michael Dante DiMartino / Майкл Данте ДиМартино
Bryan Konietzko / Брайан Кониецко-Описание: Действие сериала разворачивается примерно через 70 лет после победы аватара Аанга над Лордом Огня в последней серии мультсериала «Аватар: Легенда об Аанге». Корра, уже овладевшая магией воды, земли и огня должна обучиться последнему элементу — магии воздуха. В этом ей может помочь только сын Аанга и Катары — Тензин. Корра живёт в «Республиканском городе». Республиканский город — это место, где вместе живут люди всех наций. Героям мультсериала предстоит борьба с преступностью и с готовящимся восстанием против магов.

Список серий

Список серий:

Дата премьеры сериала в Америке: 03 октября 2014
Глава 1: После стольких лет (After All These Years)
Глава 2: Одинокая Корра (Korra Alone)
Глава 3: Коронация (The Coronation)
Глава 4: Призвание (The Calling)
Глава 5: Враг у ворот (Enemy at the Gates)
Глава 6: Битва за Заофу (Battle of Zaofu)
Глава 7: Воссоединение (Reunion)
Глава 8: Воспоминания (Remembrances)
Глава 9: По ту сторону зарослей (Beyond the Wilds)
Глава 10: Операция Бейфонг (Operation Beifong)
Глава 11: Гамбит Кувиры (Kuvira's Gambit)
Глава 12: День Колосса (Day of the Colossus)
Глава 13: Последняя битва (The Last Stand)

-
Релиз RiperAM
>>Ссылка на предыдущие и альтернативные раздачи<<

-
Качество: WEB-DL 1080p
Формат: MKV
Видео: AVC 1916x1076, 5 027 Kbps, 23.976 fps
Аудио #1: Русский, AC3 48.0 KHz, ~192 Kbps, 2 channels
Аудио #3: Английский, AC3 48.0 KHz, ~384 Kbps, 6 channels-Субтитры: English, Russian (korra-avatar)-

Подробные технические данные

General
Unique ID : 243229473871375138868320340723803275158 (0xB6FC4AEEF422BA1FAF31BB40E9B2BF96)
Complete name : D:\Библиотеки\Видеотека\Видеотека (Рипы)\Мультфильмы\Web-DL\The.Legend.of.Korra.S04.1080p.WEB-DL\The.Legend.of.Korra.S04E01.After.All.These.Years.1080p.WEB-DL.mkv
Format : Matroska
Format version : Version 2
File size : 935 MiB
Duration : 22mn 52s
Overall bit rate : 5 717 Kbps
Movie name : The Legend of Korra S04E01 After All These Years
Encoded date : UTC 2015-01-13 16:51:54
Writing application : mkvmerge v7.5.0 ('Glass Culture') 64bit built on Jan 4 2015 16:48:44
Writing library : libebml v1.3.1 + libmatroska v1.4.2
_STATISTICS_WRITING_APP : mkvmerge v7.5.0 ('Glass Culture') 64bit built on Jan 4 2015 16:48:44
_STATISTICS_WRITING_DATE_UTC : 2015-01-13 16:51:54
_STATISTICS_TAGS : BPS DURATION NUMBER_OF_FRAMES NUMBER_OF_BYTES
DURATION : 00:22:08.130000000
NUMBER_OF_FRAMES : 345
NUMBER_OF_BYTES : 23606
Video
ID : 1
Format : AVC
Format/Info : Advanced Video Codec
Format profile : High@L4.0
Format settings, CABAC : Yes
Format settings, ReFrames : 4 frames
Codec ID : V_MPEG4/ISO/AVC
Duration : 22mn 52s
Bit rate : 5 027 Kbps
Width : 1 916 pixels
Height : 1 076 pixels
Display aspect ratio : 16:9
Frame rate mode : Constant
Frame rate : 23.976 fps
Color space : YUV
Chroma subsampling : 4:2:0
Bit depth : 8 bits
Scan type : Progressive
Bits/(Pixel*Frame) : 0.102
Stream size : 822 MiB (88%)
Title : 1080p.WEB-DL
Language : Russian
Default : Yes
Forced : No
Color primaries : BT.709
Transfer characteristics : BT.709
Matrix coefficients : BT.709
Audio #1
ID : 2
Format : AC-3
Format/Info : Audio Coding 3
Format profile : Dolby Digital
Mode extension : CM (complete main)
Format settings, Endianness : Big
Codec ID : A_AC3
Duration : 22mn 52s
Bit rate mode : Constant
Bit rate : 192 Kbps
Channel(s) : 2 channels
Channel positions : Front: L R
Sampling rate : 48.0 KHz
Bit depth : 16 bits
Compression mode : Lossy
Stream size : 31.4 MiB (3%)
Title : Дубляж Никелодеон
Language : Russian
Default : Yes
Forced : No
Audio #2
ID : 3
Format : AC-3
Format/Info : Audio Coding 3
Mode extension : CM (complete main)
Format settings, Endianness : Big
Codec ID : A_AC3
Duration : 22mn 52s
Bit rate mode : Constant
Bit rate : 384 Kbps
Channel(s) : 6 channels
Channel positions : Front: L C R, Side: L R, LFE
Sampling rate : 48.0 KHz
Bit depth : 16 bits
Compression mode : Lossy
Stream size : 62.8 MiB (7%)
Title : DD5.1
Language : English
Default : No
Forced : No
Text #1
ID : 4
Format : UTF-8
Codec ID : S_TEXT/UTF8
Codec ID/Info : UTF-8 Plain Text
Title : Не официальный перевод
Language : Russian
Default : No
Forced : No
Text #2
ID : 5
Format : UTF-8
Codec ID : S_TEXT/UTF8
Codec ID/Info : UTF-8 Plain Text
Title : CC
Language : English
Default : No
Forced : No

Скриншоты


РАЗДАЧА ОБНОВЛЕНА
Добавлены ЗАКЛЮЧИТЕЛЬНЫЕ серии, перекачайте торрент
[www.cybertorrent.ru].t2144.torrent 
Торрент: Зарегистрирован [ 2018-02-16 11:35 ] · 53584E29D3D2ED6127A820F29649A956DEA1FA53

Скачать .torrent

Скачать

31 KB

Статус: проверено
Скачан: 0 раз
Размер: 11,7 GB
Профиль [ЛС]
Показать сообщения:    

Текущее время: 18-Окт 09:41

Часовой пояс: UTC ± 0



Вы не можете начинать темы
Вы не можете отвечать на сообщения
Вы не можете редактировать свои сообщения
Вы не можете удалять свои сообщения
Вы не можете голосовать в опросах
Вы не можете прикреплять файлы к сообщениям
Вы можете скачивать файлы
Torrents24.ru открытый BitTorrent Torrents24.pl открытый BitTorrent CyberTorrent.ru открытый BitTorrent BtList.ru рейтинг BitTorrent трекеров Яндекс.Метрика