BitTorrent клиенты



Ладонь Будды / Buddha's palm / Ru lai shen zhang (Тэйлор Вон / Taylor Wong) [1982, Китай, Гонконг, боевые искусства, фантастика, WEB-DL 720p] VO + Sub Rus, Eng + Eng + Original Chi

Ответить на тему
 
Автор Сообщение

Keeper ®

Пол: Не указан

Стаж: 1 год

Сообщений: 499

Создавать темы 07-Фев-2018 20:49

[Цитировать]

Ладонь Будды / Buddha's palm / Ru lai shen zhang
Страна: Китай, Гонконг
Студия: Shaw Brothers
Жанр: боевые искусства, фантастика
Год выпуска: 1982
Продолжительность: 01:33:10
Перевод: Одноголосый закадровый efremaka (Montana)
Субтитры: русские, английские
Оригинальная аудиодорожка: китайский
Режиссер: Тэйлор Вон / Taylor Wong
В ролях: Тун-Шин Йи, Он-он Ю, Кара Хуи, Алекс Мэн, Цзин-Цзин Юнг, Лье Ло, Куан-чунг Ку, Ланг Тиен Хсиа, Сзу-Чиа Чен, Сьюзэн Йин-Йин Сиу...
Описание: Простой паренек Лонг, чье лицо обезображено жуткими шрамами, выходит из себя, когда отец его возлюбленной отдает ее другому, но в неравной схватке с ее женихом проигрывает и падает с обрыва. Однако его спасает летающий дракон Даменг и приносит парня к своему хозяину, великому слепому воину, который берет юношу в свои ученики.
II Сэмпл II IMDB II
Релиз группа:

Доп. информация:
За русские субтитры спасибо Parthorisian
За одноголосый перевод спасибо loxaba
Тип релиза: WEB-DL 720p
Контейнер: MKV
Видео: AVC / 960x532@1280x532 / 2.40:1 / 25.0fps / Bit rate 4079Kbps
Аудио 1: AC3 / 48.0 KHz / 2ch. / 192kbps / rus / VO efremaka (Montana)
Аудио 2: AAC-LC / 48.0 KHz / 2ch. / 107kbps / eng
Аудио 3: AAC-LC / 48.0 KHz / 2ch. / 104kbps / chi / Mandarin
Формат субтитров: softsub (SRT)

MediaInfo

Общее
Уникальный идентификатор : 246409465801630864730958693093480019018 (0xB960BCA3F4F157DD9508709912A7344A)
Полное имя : H:\!_Torrent\Buddha's.Palm.1982.WEB-DL.720p_by_vedigo.mkv
Формат : Matroska
Версия формата : Version 4 / Version 2
Размер файла : 2,92 Гбайт
Продолжительность : 1 ч. 33 м.
Общий поток : 4486 Кбит/сек
Название фильма : Buddha's.Palm.1982.WEB-DL.720p_by_vedigo
Дата кодирования : UTC 2015-12-13 08:33:09
Программа кодирования : mkvmerge v8.5.2 ('Crosses') 64bit
Библиотека кодирования : libebml v1.3.3 + libmatroska v1.4.4
Видео
Идентификатор : 1
Формат : AVC
Формат/Информация : Advanced Video Codec
Профиль формата : Main@L3.1
Параметр CABAC формата : Нет
Параметр ReFrames формата : 2 кадра
Идентификатор кодека : V_MPEG4/ISO/AVC
Продолжительность : 1 ч. 33 м.
Битрейт : 4079 Кбит/сек
Ширина : 960 пикселей
Высота : 532 пикселя
Соотношение сторон : 2,40:1
Режим частоты кадров : Постоянный
Частота кадров : 25,000 кадров/сек
Цветовое пространство : YUV
Субдискретизация насыщенности : 4:2:0
Битовая глубина : 8 бит
Тип развёртки : Прогрессивная
Бит/(Пиксели*Кадры) : 0.319
Размер потока : 2,65 Гбайт (91%)
Заголовок : Buddha's.Palm.1982.WEB-DL.720p_by_vedigo
Default : Да
Forced : Нет
Цветовой диапазон : Limited
Основные цвета : BT.709
Характеристики трансфера : BT.709
Коэффициенты матрицы : BT.709
Аудио #1
Идентификатор : 2
Формат : AC-3
Формат/Информация : Audio Coding 3
Расширение режима : CM (complete main)
Параметр Endianness формата : Big
Идентификатор кодека : A_AC3
Продолжительность : 1 ч. 33 м.
Вид битрейта : Постоянный
Битрейт : 192 Кбит/сек
Каналы : 2 канала
Расположение каналов : Front: L R
Частота : 48,0 КГц
Частота кадров : 31,250 кадров/сек (1536 spf)
Метод сжатия : С потерями
Размер потока : 128 Мбайт (4%)
Заголовок : VO
Язык : Russian
Default : Да
Forced : Нет
Аудио #2
Идентификатор : 3
Формат : AAC
Формат/Информация : Advanced Audio Codec
Профиль формата : LC
Идентификатор кодека : A_AAC
Продолжительность : 1 ч. 33 м.
Битрейт : 107 Кбит/сек
Каналы : 2 канала
Расположение каналов : Front: L R
Частота : 48,0 КГц
Частота кадров : 46,875 кадров/сек (1024 spf)
Метод сжатия : С потерями
Размер потока : 71,5 Мбайт (2%)
Заголовок : Eng
Язык : English
Default : Нет
Forced : Нет
Аудио #3
Идентификатор : 4
Формат : AAC
Формат/Информация : Advanced Audio Codec
Профиль формата : LC
Идентификатор кодека : A_AAC
Продолжительность : 1 ч. 33 м.
Битрейт : 104 Кбит/сек
Каналы : 2 канала
Расположение каналов : Front: L R
Частота : 48,0 КГц
Частота кадров : 46,875 кадров/сек (1024 spf)
Метод сжатия : С потерями
Размер потока : 69,3 Мбайт (2%)
Заголовок : Mandarin
Язык : Chinese
Default : Нет
Forced : Нет
Текст #1
Идентификатор : 5
Формат : UTF-8
Идентификатор кодека : S_TEXT/UTF8
Идентификатор кодека/Информация : UTF-8 Plain Text
Продолжительность : 1 ч. 32 м.
Битрейт : 84 бит/сек
Count of elements : 1242
Размер потока : 56,9 Кбайт (0%)
Заголовок : subtitle rus
Язык : Russian
Default : Нет
Forced : Нет
Текст #2
Идентификатор : 6
Формат : UTF-8
Идентификатор кодека : S_TEXT/UTF8
Идентификатор кодека/Информация : UTF-8 Plain Text
Продолжительность : 1 ч. 32 м.
Битрейт : 44 бит/сек
Count of elements : 1245
Размер потока : 30,2 Кбайт (0%)
Заголовок : subtitle eng
Язык : English
Default : Нет
Forced : Нет
Меню
00:00:00.000 : en:绗竴绔
00:11:57.000 : en:绗簩绔
00:22:07.000 : en:绗笁绔
00:35:00.000 : en:绗洓绔
00:50:30.000 : en:绗簲绔
00:57:23.000 : en:绗叚绔
01:06:18.000 : en:绗竷绔
01:20:45.000 : en:绗叓绔
01:32:48.000 : en:绗節绔

Скриншоты


[Профиль] [ЛС]
Показать сообщения:    
Ответить на тему

Текущее время: 23-Фев 00:00

Часовой пояс: UTC + 3



Вы не можете начинать темы
Вы не можете отвечать на сообщения
Вы не можете редактировать свои сообщения
Вы не можете удалять свои сообщения
Вы не можете голосовать в опросах
Вы не можете прикреплять файлы к сообщениям
Вы можете скачивать файлы