BitTorrent клиенты



Дом с ловушками / Дом ловушек / House of traps / Chong xiao lou (Че Чанг / Cheh Chang) [1982, Гонконг, боевые искусства, WEB-DL 720p] AVO (Сергей Кузнецов) + Sub Eng + Eng + Original Chi

Ответить на тему
 
Автор Сообщение

Keeper ®

Пол: Не указан

Стаж: 1 год

Сообщений: 499

Создавать темы 07-Фев-2018 20:49

[Цитировать]

Дом с ловушками / House of traps / Chong xiao lou
Страна: Гонконг
Студия: Shaw Brothers
Жанр: боевые искусства
Год выпуска: 1982
Продолжительность: 01:31:08
Перевод: Авторский (одноголосый закадровый) Сергей Кузнецов
Субтитры: английские
Оригинальная аудиодорожка: китайский
Режиссер: Че Чанг / Cheh Chang
В ролях: Фэй Аи, Шенг Чианг, Сиу-ху Чин, Ке Чу, Ю Хсиао, Филип Квок, Квонг Ши Лью, Фенг Лу, Тиен Хсианг Ланг и др.
Описание: В результате интриг и убийств к власти приходит узурпатор Хуан Ли. Сын, убитого в результате переворота, последнего императора, принц Цин Янг поклялся отомстить. Он начинает готовить новый переворот, для этого он собирает преданных ему людей, а так же ценности для покупки оружия. Для хранения ценностей и списков бунтовщиков используется дом с ловушками построенный в поместье принца. Правительственные агенты знают о предназначении дома и пытаются проникнуть в него.
II Сэмпл II IMDB II
Релиз группа:

Доп. информация:
За перевод Сергея Кузнецова спасибо Александр59
Тип релиза: WEB-DL 720p
Контейнер: MKV
Видео: AVC / 960x544@1280x544 / 2.35:1 / 25.0fps / Bit rate 3971Kbps
Аудио 1: AC3 / 48.0 KHz / 2ch. / 192kbps / rus / AVO / Сергей Кузнецов
Аудио 2: AAC-LC / 48.0 KHz / 2ch. / 101kbps / eng
Аудио 3: AAC-LC / 48.0 KHz / 2ch. / 99kbps / chi / Mandarin
Формат субтитров: softsub (SRT)

MediaInfo

Общее
Уникальный идентификатор : 214324408035373377111953064057998292359 (0xA13D61288A35325FA5C592EDCC2A3587)
Полное имя : H:\!_Torrent\House.of.Traps.1982.WEB-DL.720p_by_vedigo.mkv
Формат : Matroska
Версия формата : Version 4 / Version 2
Размер файла : 2,78 Гбайт
Продолжительность : 1 ч. 31 м.
Общий поток : 4366 Кбит/сек
Название фильма : House.of.Traps.1982.WEB-DL.720p_by_vedigo
Дата кодирования : UTC 2015-12-12 02:19:25
Программа кодирования : mkvmerge v8.5.2 ('Crosses') 64bit
Библиотека кодирования : libebml v1.3.3 + libmatroska v1.4.4
Видео
Идентификатор : 1
Формат : AVC
Формат/Информация : Advanced Video Codec
Профиль формата : Main@L3.1
Параметр CABAC формата : Нет
Параметр ReFrames формата : 2 кадра
Идентификатор кодека : V_MPEG4/ISO/AVC
Продолжительность : 1 ч. 31 м.
Битрейт : 3971 Кбит/сек
Ширина : 960 пикселей
Высота : 544 пикселя
Соотношение сторон : 2,35:1
Режим частоты кадров : Постоянный
Частота кадров : 25,000 кадров/сек
Цветовое пространство : YUV
Субдискретизация насыщенности : 4:2:0
Битовая глубина : 8 бит
Тип развёртки : Прогрессивная
Бит/(Пиксели*Кадры) : 0.304
Размер потока : 2,53 Гбайт (91%)
Заголовок : House.of.Traps.1982.WEB-DL.720p_by_vedigo
Default : Да
Forced : Нет
Цветовой диапазон : Limited
Основные цвета : BT.709
Характеристики трансфера : BT.709
Коэффициенты матрицы : BT.709
Аудио #1
Идентификатор : 2
Формат : AC-3
Формат/Информация : Audio Coding 3
Расширение режима : CM (complete main)
Параметр Endianness формата : Big
Идентификатор кодека : A_AC3
Продолжительность : 1 ч. 31 м.
Вид битрейта : Постоянный
Битрейт : 192 Кбит/сек
Каналы : 2 канала
Расположение каналов : Front: L R
Частота : 48,0 КГц
Частота кадров : 31,250 кадров/сек (1536 spf)
Метод сжатия : С потерями
Размер потока : 125 Мбайт (4%)
Заголовок : AVO @ Сергей Кузнецов
Язык : Russian
Default : Да
Forced : Нет
Аудио #2
Идентификатор : 3
Формат : AAC
Формат/Информация : Advanced Audio Codec
Профиль формата : LC
Идентификатор кодека : A_AAC
Продолжительность : 1 ч. 31 м.
Битрейт : 101 Кбит/сек
Каналы : 2 канала
Расположение каналов : Front: L R
Частота : 48,0 КГц
Частота кадров : 46,875 кадров/сек (1024 spf)
Метод сжатия : С потерями
Размер потока : 65,9 Мбайт (2%)
Заголовок : Eng
Язык : English
Default : Нет
Forced : Нет
Аудио #3
Идентификатор : 4
Формат : AAC
Формат/Информация : Advanced Audio Codec
Профиль формата : LC
Идентификатор кодека : A_AAC
Продолжительность : 1 ч. 31 м.
Битрейт : 98,8 Кбит/сек
Каналы : 2 канала
Расположение каналов : Front: L R
Частота : 48,0 КГц
Частота кадров : 46,875 кадров/сек (1024 spf)
Метод сжатия : С потерями
Размер потока : 64,4 Мбайт (2%)
Заголовок : Mandarin
Язык : Chinese
Default : Нет
Forced : Нет
Текст
Идентификатор : 5
Формат : UTF-8
Идентификатор кодека : S_TEXT/UTF8
Идентификатор кодека/Информация : UTF-8 Plain Text
Продолжительность : 1 ч. 30 м.
Битрейт : 54 бит/сек
Count of elements : 1158
Размер потока : 35,8 Кбайт (0%)
Заголовок : subtitle eng
Язык : English
Default : Нет
Forced : Нет
Меню
00:00:00.000 : en:绗竴绔
00:08:13.000 : en:绗簩绔
00:20:09.000 : en:绗笁绔
00:31:33.000 : en:绗洓绔
00:42:24.000 : en:绗簲绔
00:54:59.000 : en:绗叚绔
01:06:45.000 : en:绗竷绔
01:20:18.000 : en:绗叓绔
01:30:48.000 : en:绗節绔

Скриншоты


[Профиль] [ЛС]
Показать сообщения:    
Ответить на тему

Текущее время: 19-Фев 16:19

Часовой пояс: UTC + 3



Вы не можете начинать темы
Вы не можете отвечать на сообщения
Вы не можете редактировать свои сообщения
Вы не можете удалять свои сообщения
Вы не можете голосовать в опросах
Вы не можете прикреплять файлы к сообщениям
Вы можете скачивать файлы