BitTorrent клиенты



Гелиос / Helios / Chek dou (Лок Мэн Люн / Lok Man Leung, Ким-Чинг Люк / Kim-Ching Luk) [2015, Гонконг, Китай, США, фэнтези, боевик, триллер, криминал, BDRip 720p] DVO (2D) + Sub Eng + Original Chi

Ответить на тему
 
Автор Сообщение

Keeper ®

Пол: Не указан

Стаж: 1 год

Сообщений: 499

Создавать темы 07-Фев-2018 20:49

[Цитировать]

Гелиос / Helios / Chek dou
Страна: Гонконг, Китай, США
Студия: Media Asia Films, Wanda Media Co., Sun Entertainment Culture
Жанр: фэнтези, боевик, триллер, криминал
Год выпуска: 2015
Продолжительность: 01:58:30
Перевод: Любительский (двухголосый закадровый) den904 & DeadSno
Субтитры: английские
Оригинальная аудиодорожка: китайский
Режиссер: Лок Мэн Люн / Lok Man Leung, Ким-Чинг Люк / Kim-Ching Luk
В ролях: Джеки Чун, Ник Чун, Шон Юе, Дженис Ман, Чи Чжин Хи, Чхве Ши Вон, Юн Джин И, Жозефин Ку, Вэньюань Фэн, Чан Чэнь и др.
Описание: Известный террорист по кличке «Гелиос» похищает некоторое количество урана и теперь планирует создать ядерную бомбу, чтобы затем продать её одной из гонконгских террористических организаций. Главный инспектор городской полиции Ли Инь Мин, профессор физики Сиу Чи Ян и два эксперта по оружию, приехавших из Южной Кореи несмотря на противоречия, возникающие между ними, должны работать вместе, чтобы не допустить катастрофы.
II Сэмпл II IMDB II
Релиз группа:

Доп. информация:
За перевод 2D спасибо LION1234
Тип релиза: BDRip 720p
Контейнер: MKV
Видео: AVC / 1280x544 / 16:9 / 24.0fps / Bit rate 6000Kbps / High@L4.1
Аудио 1: AC3 / 48.0 KHz / 2ch. / 192kbps / rus / DVO / 2D
Аудио 2: AC3 / 48.0 KHz / 6ch. / 640kbps / chi
Формат субтитров: softsub (SRT)

MediaInfo

Общее
Уникальный идентификатор : 205190497564371085754900928959849319864 (0x9A5E409A6C0D0204A870E5853E564DB8)
Полное имя : G:\!!!_torrent\Helios.2015.BDRip.720p_by_vedigo.mkv
Формат : Matroska
Версия формата : Version 4 / Version 2
Размер файла : 5,65 Гбайт
Продолжительность : 1 ч. 58 м.
Общий поток : 6827 Кбит/сек
Название фильма : Helios.2015.BDRip.720p_by_vedigo
Дата кодирования : UTC 2015-12-07 00:25:16
Программа кодирования : mkvmerge v8.6.1 ('Flying') 64bit
Библиотека кодирования : libebml v1.3.3 + libmatroska v1.4.4
Видео
Идентификатор : 1
Формат : AVC
Формат/Информация : Advanced Video Codec
Профиль формата : High@L4.1
Параметр CABAC формата : Да
Параметр ReFrames формата : 12 кадров
Идентификатор кодека : V_MPEG4/ISO/AVC
Продолжительность : 1 ч. 58 м.
Битрейт : 6000 Кбит/сек
Ширина : 1280 пикселей
Высота : 544 пикселя
Соотношение сторон : 2,35:1
Режим частоты кадров : Постоянный
Частота кадров : 24,000 кадра/сек
Цветовое пространство : YUV
Субдискретизация насыщенности : 4:2:0
Битовая глубина : 8 бит
Тип развёртки : Прогрессивная
Бит/(Пиксели*Кадры) : 0.359
Размер потока : 4,96 Гбайт (88%)
Заголовок : Helios.2015.BDRip.720p_by_vedigo
Библиотека кодирования : x264 core 148 r2638 7599210
Настройки программы : cabac=1 / ref=12 / deblock=1:-3:-3 / analyse=0x3:0x133 / me=umh / subme=11 / psy=0 / mixed_ref=1 / me_range=48 / chroma_me=1 / trellis=2 / 8x8dct=1 / cqm=0 / deadzone=21,11 / fast_pskip=0 / chroma_qp_offset=0 / threads=12 / lookahead_threads=3 / sliced_threads=0 / nr=0 / decimate=1 / interlaced=0 / bluray_compat=0 / constrained_intra=0 / bframes=10 / b_pyramid=2 / b_adapt=2 / b_bias=0 / direct=3 / weightb=1 / open_gop=0 / weightp=2 / keyint=250 / keyint_min=23 / scenecut=40 / intra_refresh=0 / rc_lookahead=40 / rc=2pass / mbtree=0 / bitrate=6000 / ratetol=1.0 / qcomp=0.60 / qpmin=0 / qpmax=69 / qpstep=4 / cplxblur=20.0 / qblur=0.5 / vbv_maxrate=50000 / vbv_bufsize=62500 / nal_hrd=none / filler=0 / ip_ratio=1.40 / pb_ratio=1.30 / aq=1:0.90
Default : Да
Forced : Нет
Аудио #1
Идентификатор : 2
Формат : AC-3
Формат/Информация : Audio Coding 3
Расширение режима : CM (complete main)
Параметр Endianness формата : Big
Идентификатор кодека : A_AC3
Продолжительность : 1 ч. 58 м.
Вид битрейта : Постоянный
Битрейт : 192 Кбит/сек
Каналы : 2 канала
Расположение каналов : Front: L R
Частота : 48,0 КГц
Частота кадров : 31,250 кадров/сек (1536 spf)
Метод сжатия : С потерями
Размер потока : 163 Мбайт (3%)
Заголовок : DVO @ 2D
Язык : Russian
Default : Да
Forced : Нет
Аудио #2
Идентификатор : 3
Формат : AC-3
Формат/Информация : Audio Coding 3
Расширение режима : CM (complete main)
Параметр Endianness формата : Big
Идентификатор кодека : A_AC3
Продолжительность : 1 ч. 58 м.
Вид битрейта : Постоянный
Битрейт : 640 Кбит/сек
Каналы : 6 каналов
Расположение каналов : Front: L C R, Side: L R, LFE
Частота : 48,0 КГц
Частота кадров : 31,250 кадров/сек (1536 spf)
Метод сжатия : С потерями
Размер потока : 542 Мбайт (9%)
Заголовок : original
Язык : Chinese
Default : Нет
Forced : Нет
Текст
Идентификатор : 4
Формат : UTF-8
Идентификатор кодека : S_TEXT/UTF8
Идентификатор кодека/Информация : UTF-8 Plain Text
Продолжительность : 1 ч. 51 м.
Битрейт : 34 бит/сек
Count of elements : 1016
Размер потока : 28,7 Кбайт (0%)
Заголовок : subtitle eng
Язык : English
Default : Нет
Forced : Нет
Меню
00:00:00.000 : en:00:00:00.000
00:06:54.958 : en:00:06:54.958
00:12:32.208 : en:00:12:32.208
00:18:17.500 : en:00:18:17.500
00:23:26.750 : en:00:23:26.750
00:32:46.542 : en:00:32:46.542
00:39:35.708 : en:00:39:35.708
00:44:44.042 : en:00:44:44.042
00:51:48.708 : en:00:51:48.708
00:54:14.083 : en:00:54:14.083
01:00:17.875 : en:01:00:17.875
01:07:03.958 : en:01:07:03.958
01:12:50.708 : en:01:12:50.708
01:18:10.167 : en:01:18:10.167
01:23:27.625 : en:01:23:27.625
01:30:09.708 : en:01:30:09.708
01:36:10.792 : en:01:36:10.792
01:41:18.333 : en:01:41:18.333
01:49:25.500 : en:01:49:25.500
01:54:38.250 : en:01:54:38.250

Скриншоты


Сравнение с исходником





x264 info

x264 [info]: frame I:1387 Avg QP:12.60 size:143236
x264 [info]: frame P:43347 Avg QP:15.28 size: 59233
x264 [info]: frame B:125907 Avg QP:17.41 size: 20333
x264 [info]: consecutive B-frames: 4.8% 4.8% 14.4% 15.5% 12.0% 44.4% 2.3% 0.5% 0.5% 0.2% 0.5%
x264 [info]: mb I I16..4: 33.1% 24.3% 42.6%
x264 [info]: mb P I16..4: 12.9% 12.1% 11.9% P16..4: 20.9% 21.9% 12.8% 3.2% 0.3% skip: 4.0%
x264 [info]: mb B I16..4: 4.1% 2.8% 2.2% B16..8: 23.2% 25.3% 6.3% direct: 8.4% skip:27.8% L0:34.6% L1:34.7% BI:30.7%
x264 [info]: 8x8 transform intra:31.6% inter:28.2%
x264 [info]: direct mvs spatial:98.9% temporal:1.1%
x264 [info]: coded y,uvDC,uvAC intra: 84.2% 78.3% 51.8% inter: 32.4% 24.6% 5.1%
x264 [info]: i16 v,h,dc,p: 8% 8% 46% 38%
x264 [info]: i8 v,h,dc,ddl,ddr,vr,hd,vl,hu: 21% 20% 21% 5% 6% 6% 6% 7% 8%
x264 [info]: i4 v,h,dc,ddl,ddr,vr,hd,vl,hu: 17% 14% 29% 6% 8% 7% 7% 6% 7%
x264 [info]: i8c dc,h,v,p: 31% 29% 20% 20%
x264 [info]: Weighted P-Frames: Y:3.2% UV:1.6%
x264 [info]: ref P L0: 43.3% 11.0% 19.9% 5.6% 5.8% 3.1% 3.6% 1.6% 1.8% 1.1% 1.5% 1.2% 0.4% 0.0%
x264 [info]: ref B L0: 80.8% 9.9% 3.0% 1.9% 1.1% 1.1% 0.7% 0.6% 0.4% 0.3% 0.2%
x264 [info]: ref B L1: 96.7% 3.3%
x264 [info]: kb/s:5993.04
[Профиль] [ЛС]
Показать сообщения:    
Ответить на тему

Текущее время: 21-Фев 23:33

Часовой пояс: UTC + 3



Вы не можете начинать темы
Вы не можете отвечать на сообщения
Вы не можете редактировать свои сообщения
Вы не можете удалять свои сообщения
Вы не можете голосовать в опросах
Вы не можете прикреплять файлы к сообщениям
Вы можете скачивать файлы