Статистика раздачи
Размер:  1,37 GB   |    Зарегистрирован:  8 месяцев 3 дня   |    Скачан:  0 раз

Полного источника не было: Никогда

 
   
 
 

soda ®

Пол:
Не указан
Стаж:
8 месяцев 4 дня
Сообщений:
230

Чебурашка / Cheburashka / チェブラーシカ
Страна: Япония, Россия, Корея
Год выпуска: 2013 г.
Жанр: мультфильм, детский, семейный
Продолжительность: 80 мин.
Перевод: полное дублирование (студия "Ориол")
Режиссер: Макото Накамура
Описание: В овощном магазине одного города в ящике из-под апельсинов нашли непонятное спящее животное с большими круглыми ушами. Имя Чебурашка зверек получил потому, что все время падал, когда его пытались посадить на край ящика. Чебурашку попробовали отвести в зоопарк, но там неведомого зверя брать не захотели, и он поселился в телефонной будке. В это же время одинокий крокодил по имени Гена решил завести себе друзей, для чего развесил объявления об их поиске. Одно из таких объявлений прочитал грустный Чебурашка. Так и подружились крокодил Гена и неизвестное науке создание Чебурашка. Когда в город приехал цирк, Гена и Чебурашка решили поступить в него на работу. Их не взяли, но друзья встретили девочку Машу, которая тоже мечтала о работе в цирке, и взялись помочь ей в тренировках, чтобы она смогла осуществить свою мечту.
Доп. информация: В этом мультфильме нет истории "Чебурашка идет в зоопарк".

Качество: WEBRip
Формат видео: AVI
Видео: Xvid, ~2232 Кбит/сек, 720 x 400, 25,000 кадров/сек
Аудио: AC-3, 2ch, 192 Кбит/сек, 48,0 КГц
Язык: Русский

Подробные тех. данные

Формат : AVI
Формат/Информация : Audio Video Interleave
Размер файла : 1,37 Гбайт
Продолжительность : 1 ч. 20 м.
Общий поток : 2433 Кбит/сек
Программа кодирования : VirtualDubMod 1.5.10.2 (build 2540/release)
Библиотека кодирования : VirtualDubMod build 2540/release
Видео
Идентификатор : 0
Формат : MPEG-4 Visual
Профиль формата : Advanced Simple@L5
Параметр BVOP формата : 1
Параметр QPel формата : Нет
Параметр GMC формата : Без точки перехода
Параметр матрицы формата : Выборочная
Идентификатор кодека : XVID
Идентификатор кодека/Подсказка : XviD
Продолжительность : 1 ч. 20 м.
Битрейт : 2232 Кбит/сек
Ширина : 720 пикселей
Высота : 400 пикселей
Соотношение сторон : 16:9
Частота кадров : 25,000 кадров/сек
Цветовое пространство : YUV
Субдискретизация насыщенности : 4:2:0
Битовая глубина : 8 бит
Тип развёртки : Прогрессивная
Метод сжатия : С потерями
Бит/(Пиксели*Кадры) : 0.310
Размер потока : 1,25 Гбайт (92%)
Библиотека кодирования : XviD 1.2.1 (UTC 2008-12-04)
Аудио
Идентификатор : 1
Формат : AC-3
Формат/Информация : Audio Coding 3
Расширение режима : CM (complete main)
Идентификатор кодека : 2000
Продолжительность : 1 ч. 20 м.
Вид битрейта : Постоянный
Битрейт : 192 Кбит/сек
Каналы : 2 канала
Расположение каналов : Front: L R
Частота : 48,0 КГц
Битовая глубина : 16 бит
Метод сжатия : С потерями
Размер потока : 110 Мбайт (8%)
Выравнивание : Разделение по промежуткам
Продолжительность промежутка : 40 мс. (1,00 видеокадр)
Время предзагрузки промежутка : 500 мс.

Отличия

Сценарий в основном Михаила Алдашина (Россия), художники-постановщики Михаил Алдашин и Михаил Тумеля (Беларусь). Озвучка - российские актеры. Композитор и звукорежиссёр Александр Гусев (Россия). Концепт-арт, раскадровка, аниматик и некоторая другая художественная работа выполнялись белорусскими специалистами. Куклы и декорации корейские. Аниматоры и операторы все корейцы. Производство анимации велось в Корее.
Представленная в данной раздаче версия сильно отличается от той, что скомпания "Реанимедиа" будет показывать в кинотеатрах с 5 июня. Здесь раздается одна из трёх монтажных версий.
Версия 1.: (раздается здесь и была издана на DVD): Три отдельных мультфильма. Сначала точный римейк советского "Крокодил Гена". За ним следует новая серия "Чебурашка и цирк". Затем новая серия "Советы Шапокляк". Все части разделены на отдельные мультфильмы. 80 мин.
Версия 2.: (демонстрировалась в японских кинотеатрах и также издана на DVD): Вместо полной серии "Крокодил Гена" сокращенная нарезка из неё с голосом рассказчика. Затем две новых серии "Чебурашка и цирк" и "Советы Шапокляк". Всё смонтированно в один фильм. Присутствует только японская озвучка, отличающаяся от русской тем, что также включает голос рассказчика. 63 мин.
Версия 3.: (с 5 июня будет показана в некоторых российских кинотеатрах): Включает нарезку из "Крокодила Гены". Затем идёт новая серия "Чебурашка и цирк". А вот после неё самая новая серия "Чебурашка идет в зоопарк", снятая совсем недавно. Последней идет "Советы Шапокляк". 79 мин.
Соответственно, в этой раздаче нет серии "Чебурашка идёт в зоопарк". Да собственно её пока вообще нигде нет. Ждём проката. Отмечу, что в Японии переснимали Чебурашку многие режиссёры. Так, в 2009 году с разрешения Эдуарда Успенского, автора Чебурашки и Крокодила Гены, режиссер Кудо Сусуму растянул четыре советских мультфильма на целый кукольный сериал из 26 мультфильмов по 3 минуты каждый. Сериал Cheburashka arere? ("Что за Чебурашка?") вышел в эфир на японском телеканале TV Tokyo в октябре 2009 года.

Скриншоты

[www.cybertorrent.ru].t2136.torrent 
Торрент: Зарегистрирован [ 2018-02-16 11:35 ] · 62C544ED3FDB45A3AD702CDB706545D4667A587F

Скачать .torrent

Скачать

28 KB

Статус: проверено
Скачан: 0 раз
Размер: 1,37 GB
Профиль [ЛС]
Показать сообщения:    

Текущее время: 20-Окт 02:46

Часовой пояс: UTC ± 0



Вы не можете начинать темы
Вы не можете отвечать на сообщения
Вы не можете редактировать свои сообщения
Вы не можете удалять свои сообщения
Вы не можете голосовать в опросах
Вы не можете прикреплять файлы к сообщениям
Вы можете скачивать файлы
Torrents24.ru открытый BitTorrent Torrents24.pl открытый BitTorrent CyberTorrent.ru открытый BitTorrent BtList.ru рейтинг BitTorrent трекеров Яндекс.Метрика