Статистика раздачи
Размер:  849 MB   |    Зарегистрирован:  8 месяцев 3 дня   |    Скачан:  0 раз

Полного источника не было: Никогда

Личеров:  1  [  0 KB/s  ]  
 
   
 
 

DR_KTO ®

Пол:
Не указан
Стаж:
8 месяцев 4 дня
Сообщений:
105

Звёздный час. Новогодний выпуск
Год выпуска: 1993
Страна: Россия
Жанр: интеллектуальная игра
Продолжительность: 00:38:30
Телеканал: Ностальгия
Описание: Новогодний выпуск интеллектуально-развлекательной игры с Сергеем Супоневым.
Качество: DVB
Формат: MPG
Видео кодек: MPEG2
Аудио кодек: MP2
Видео: MPEG2 Video 720x576 (4:3) 25fps 2828kbps
Аудио: MPEG Audio 48000Hz stereo 192kbps

Подробные технические данные

General
Complete name : Звёздный час. Новогодний выпуск (1993) [Ностальгия].mpg
Format : MPEG-PS
File size : 849 MiB
Duration : 38mn 30s
Overall bit rate mode : Variable
Overall bit rate : 3 081 Kbps
Writing library : (dvd5: Jun 16 2014)
Video
ID : 224 (0xE0)
Format : MPEG Video
Format version : Version 2
Format profile : Main@Main
Format settings, BVOP : No
Format settings, Matrix : Custom
Format settings, GOP : Variable
Duration : 38mn 30s
Bit rate mode : Variable
Bit rate : 2 828 Kbps
Maximum bit rate : 15.0 Mbps
Width : 720 pixels
Height : 576 pixels
Display aspect ratio : 4:3
Frame rate : 25.000 fps
Standard : PAL
Color space : YUV
Chroma subsampling : 4:2:0
Bit depth : 8 bits
Scan type : Interlaced
Scan order : Top Field First
Compression mode : Lossy
Bits/(Pixel*Frame) : 0.273
Time code of first frame : 00:00:00:00
Time code source : Group of pictures header
Stream size : 779 MiB (92%)
Source encoded stream size : (dvd5: Jun 16 2014)
Writing library : (dvd5: Jun 16 2014)
Audio
ID : 192 (0xC0)
Format : MPEG Audio
Format version : Version 1
Format profile : Layer 2
Duration : 38mn 30s
Bit rate mode : Constant
Bit rate : 192 Kbps
Channel(s) : 2 channels
Sampling rate : 48.0 KHz
Compression mode : Lossy
Stream size : 52.9 MiB (6%)
[www.cybertorrent.ru].t2128.torrent 
Торрент: Зарегистрирован [ 2018-02-16 11:35 ] · D75FC32CD263708FC18438262B1177A83E584D29

Скачать .torrent

Скачать

17 KB

Статус: проверено
Скачан: 0 раз
Размер: 849 MB
Профиль [ЛС]
Показать сообщения:    

Текущее время: 20-Окт 03:12

Часовой пояс: UTC ± 0



Вы не можете начинать темы
Вы не можете отвечать на сообщения
Вы не можете редактировать свои сообщения
Вы не можете удалять свои сообщения
Вы не можете голосовать в опросах
Вы не можете прикреплять файлы к сообщениям
Вы можете скачивать файлы
Torrents24.ru открытый BitTorrent Torrents24.pl открытый BitTorrent CyberTorrent.ru открытый BitTorrent BtList.ru рейтинг BitTorrent трекеров Яндекс.Метрика