BitTorrent клиенты



Нападение на 13-й участок / Assault on Precinct 13 (Жан-Франсуа Рише / Jean-Francois Richet) [2005, США, Франция, боевик, триллер, драма, криминал, HDTVRip] [Open Matte] MVO (Первый канал)

Ответить на тему
 
Автор Сообщение

Red ®

Пол: Не указан

Стаж: 1 год

Сообщений: 205

Создавать темы 07-Фев-2018 17:15

[Цитировать]

Нападение на 13-й участок / Assault on Precinct 13
Страна: США, Франция
Студия: Biscayne Pictures, Liaisons Films, Rogue Pictures, Why Not Productions
Жанр: Боевик, триллер, драма, криминал
Год выпуска: 2005
Продолжительность: 01:39:11
Перевод: Профессиональный (многоголосый закадровый) Первый канал
Субтитры: нет
Оригинальная аудиодорожка: нет
Режиссер: Жан-Франсуа Рише / Jean-Francois Richet
В ролях: Итан Хоук, Лоренс Фишбёрн, Гэбриел Бирн, Мария Белло, Дреа де Маттео, Джон Легуизамо, Брайан Деннехи, Джа Рул, Карри Грэм, Аиша Хайндс, Мэтт Крэйвен, Фульвио Чечере, Питер Брайант, Ким Коутс, Хью Диллон, Тиг Фонг, Ясмин Гельо, Джессика Греко, Дориан Хэрвуд, Филип Маршалл, Арнольд Пиннок
Описание: В канун Нового года спецавтобус, перевозящий заключенных, делает вынужденную остановку в 13-м полицейском участке. Среди преступников крупный криминальный авторитет. Его подельники, чтобы освободить босса, решают взять штурмом 13-й участок.
Дополнительная информация:
Автор релиза -
Источник аудио и видео - HDTV 1080i TS - мои записи с канала Первый HD
В дорожке Первого канала AC3, 48000 Гц, 6ch, 384 kbps по факту лишь 2 канала со звуком, а оставшиеся 4 канала пустые, поэтому аудиодорожка была перекодирована в AC3 2.0 192 kbps с использованием eac3to и Sony Vegas
За основу была взята моя запись от 03.02.2018, донором послужила запись от 06.10.2017
Для максимально комфортного просмотра сделал следующее:
1. Удалены послерекламные вставки с названием фильма
2. Удалены затемнения картинки перед рекламными роликами
3. Удалены всплывающие анонсы передач и фильмов
Рекламы нет!

Сэмпл: https://yadi.sk/i/USG0PQI_3SAh43
Качество видео: HDTVRip
Формат видео: AVI
Видео: XviD, 720x400 (16:9), 25.000 fps, 1913 kbps, 0.266 bit/pixel
Аудио: Русский АС3, 48000 Гц, 2ch, 192 kbps

MediaInfo

Общее
Полное имя : D:\Assault.on.Precinct.13.Open.Matte.2005.HDTVRip-ylnian.avi
Формат : AVI
Формат/Информация : Audio Video Interleave
Размер файла : 1,46 Гбайт
Продолжительность : 1 ч. 39 м.
Общий поток : 2114 Кбит/сек
Название фильма : Assault.on.Precinct.13.Open.Matte.2005.HDTVRip-ylnian
Программа кодирования : VirtualDubMod 1.5.10.2 (build 2540/release)
Библиотека кодирования : VirtualDubMod build 2540/release
Видео
Идентификатор : 0
Формат : MPEG-4 Visual
Профиль формата : Advanced Simple@L5
Настройки формата : BVOP1
Параметр BVOP формата : 1
Параметр QPel формата : Нет
Параметр GMC формата : Без точки перехода
Параметр матрицы формата : Default (MPEG)
Идентификатор кодека : XVID
Идентификатор кодека/Подсказка : XviD
Продолжительность : 1 ч. 39 м.
Битрейт : 1913 Кбит/сек
Ширина : 720 пикселей
Высота : 400 пикселей
Соотношение сторон : 16:9
Частота кадров : 25,000 кадров/сек
Цветовое пространство : YUV
Субдискретизация насыщенности : 4:2:0
Битовая глубина : 8 бит
Тип развёртки : Прогрессивная
Метод сжатия : С потерями
Бит/(Пиксели*Кадры) : 0.266
Размер потока : 1,33 Гбайт (90%)
Библиотека кодирования : XviD 67
Аудио
Идентификатор : 1
Формат : AC-3
Формат/Информация : Audio Coding 3
Идентификатор кодека : 2000
Продолжительность : 1 ч. 39 м.
Вид битрейта : Постоянный
Битрейт : 192 Кбит/сек
Каналы : 2 канала
Расположение каналов : Front: L R
Частота : 48,0 КГц
Частота кадров : 31,250 кадров/сек (1536 SPF)
Битовая глубина : 16 бит
Метод сжатия : С потерями
Размер потока : 136 Мбайт (9%)
Выравнивание : Разделение по промежуткам
Продолжительность промежутка : 40 мс. (1,00 видеокадр)
Время предзагрузки промежутка : 500 мс.
Заголовок : MVO - 1 канал
ServiceKind/String : Complete Main
[Профиль] [ЛС]
Показать сообщения:    
Ответить на тему

Текущее время: 20-Фев 06:53

Часовой пояс: UTC + 3



Вы не можете начинать темы
Вы не можете отвечать на сообщения
Вы не можете редактировать свои сообщения
Вы не можете удалять свои сообщения
Вы не можете голосовать в опросах
Вы не можете прикреплять файлы к сообщениям
Вы можете скачивать файлы