BitTorrent клиенты



Самурай Джек / Samurai Jack / Сезон: 1-4 / Серии: 1-52 из 52 (Геннадий Тартаковский, Рэнди Майерс / Genndy Tartakovsky, Randy Myers) [2001-2004, боевик, приключения, фантастика, BDRip 720p] Dub (Cartoon Network) + Original + Sub (Eng)

Ответить на тему
 
Автор Сообщение

Volga ®

Пол: Не указан

Стаж: 1 год

Сообщений: 761

Создавать темы 06-Фев-2018 18:39

[Цитировать]

Самурай Джек / Samurai Jack
Страна: США
Студия: Cartoon Network Studios
Жанр: Боевик, Приключения, Фантастика
Продолжительность серии: ~ 23 мин.
Год выпуска: 2001-2004
Перевод: Профессиональный (дублированный) |Cartoon Network|
Режиссёр: Геннадий Тартаковский, Рэнди Майерс / Genndy Tartakovsky, Randy Myers
Роли озвучивали: Фил ЛаМарр, Саб Шимоно, Тара Стронг, Джон Димагио, Грей Гриффин, Мако Ивамацу...
Роли дублировали: Никита Прозоровский, Дмитрий Филимонов, Ольга Голованова, Андрей Ярославцев, Алексей Борзунов, Елена Борзунова, Юрий Маляров
Описание: В далеком прошлом существо Аку, умеющее менять форму по своему жеданию, принесло на Землю смерть и разрушение. Последней надеждой людей стал юноша, посланный на обучение мастерству воина-самурая. Но когда он возвращается уже повзрослевшим, то, не без помощи Аку, оказывается перенесенным в будущее через портал в неизвестное место и время. В новом для него месте местные зовут его Джек и помогают ему вернуться в прошлое, чтобы исправить всё зло, сотворенное Аку.-Релиз группы: -Огромная Благодарность:
SiNeTeZ за исходный звук дубляжа (1-2 сезон) старого телепоказа [2x2]
#Antisnl# за предоставление свежих записей (3-4 сезон) телеканала [2x2]-Качество: BDRip
Формат: MKV
Видео: MPEG-4 AVC, 960x720 (4:3), 23.976 fps, ~4000 kbps
Аудио 1: Русский, AC3 Dolby Digital, 2 ch, 192 kbps, 48 kHz
Аудио 2: Английский, AC3 Dolby Digital, 2 ch, 192 kbps, 48 kHz
Аудио 3: Английский, AC3 Dolby Digital, 2 ch, 192 kbps, 48 kHz (комментарии авторов)
Субтитры: Английские | SRT
Сэмпл
Все раздачи мультсериала
BDRip 720p | BDRip 1080p | BDRemux 1080p

Список Серий

I Сезон:
01 I. The Beginning
02 II. The Samurai Called Jack
03 III. The First Fight
04 IV. Jack, the Woolies, and the Chritchellites
05 V. Jack in Space
06 VI. Jack and the Warrior Woman
07 VII. Jack and the Three Blind Archers
08 VIII. Jack vs. Mad Jack
09 IX. Jack Under the Sea
10 X. Jack and the Lava Monster
11 XI. Jack and the Scotsman
12 XII. Jack and the Gangsters
13 XIII. Aku's Fairy Tales
II Сезон:
01 XIV. Jack Learns
02 XV. Jack Tales
03 XVI. Jack and the Smackback
04 XVII. Jack and the Scotsman
05 XVIII. Jack and the Ultra-Robots
06 XIX. Jack Remembers the Past
07 XX. Jack and the Monks
08 XXI. Jack and the Farting Dragon
09 XXII. Jack and the Hunters
10 XXIII. Jack vs Demongo the Soul Collector
11 XXIV. Jack is Naked
12 XXV. Jack and the Spartans
13 XXVI. Jacks Sandals
III Сезон:
01 XXII. Chicken Jack
02 XXIII. Jack and the Rave
03 XXIX. Couple on a Train
04 XXX. Jack and the Zombies
05 XXXI. Jack and the Scarab
06 XXXII. Jack and the Traveling Creatures
07 XXXIII. Jack and the Annoying Creature
08 XXXIV. Jack and the Swamp Wizard
09 XXXV. Jack and the Haunted House
10 XXXVI. Jack, the Monks, and the Ancient Master's Son
11 XXXVII. The Birth of Evil (Part I)
12 XXXVIII. The Birth of Evil (Part II)
13 XXXIX. Jack and the Labyrinth
IV Сезон:
01 XL. Jack vs. the Ninja
02 XLI. Robo-Samurai vs. Mondo-bot
03 XLII. Samurai vs. Samurai
04 XLIII. The Aku Infection
05 XLIV. The Princess and the Bounty Hunters
06 XLV. The Scotsman Saves Jack (Part I)
07 XLVI. The Scotsman Saves Jack (Part II)
08 XLVII. Jack and the Flying Prince and Princess
09 XLVIII. Jack vs. Aku
10 XLIX. The Four Seasons of Death
11 L. Tale of X49
12 LI. Young Jack in Africa
13 LII. Jack and the Baby

Скриншоты


MediaInfo

Первый сезон

Общее
Уникальный идентификатор : 251362766479212210526308212092564172340 (0xBD1AB5380EF2686A944029355F7C6E34)
Полное имя : C:\Раздачи\Samurai.Jack.2001-2004.BDRip.720p-SergeZuich\01 Season\Samurai.Jack.S01E07.VII.Jack.and.the.Three.Blind.Archers.720p.BDRip.DD2.0.x264-SergeZuich.mkv
Формат : Matroska
Версия формата : Version 4 / Version 2
Размер файла : 608 Мбайт
Продолжительность : 23 м. 56 с.
Общий поток : 3548 Кбит/сек
Название фильма : Samurai.Jack.S01E07.720p.BluRay.DD2.0.x264-pcroland.mkv
Дата кодирования : UTC 2018-01-01 05:39:46
Программа кодирования : mkvmerge v8.3.0 ('Over the Horizon') 64bit
Библиотека кодирования : libebml v1.3.1 + libmatroska v1.4.2
Видео
Идентификатор : 1
Формат : AVC
Формат/Информация : Advanced Video Codec
Профиль формата : High@L4.1
Настройки формата : CABAC / 12 Ref Frames
Параметр CABAC формата : Да
Параметр RefFrames формата : 12 кадров
Идентификатор кодека : V_MPEG4/ISO/AVC
Продолжительность : 23 м. 56 с.
Битрейт : 2970 Кбит/сек
Ширина : 960 пикселей
Высота : 720 пикселей
Соотношение сторон : 4:3
Режим частоты кадров : Постоянный
Частота кадров : 23,976 (24000/1001) кадра/сек
Цветовое пространство : YUV
Субдискретизация насыщенности : 4:2:0
Битовая глубина : 8 бит
Тип развёртки : Прогрессивная
Бит/(Пиксели*Кадры) : 0.179
Размер потока : 509 Мбайт (84%)
Заголовок : Jack and the Three Blind Archers
Библиотека кодирования : x264 core 152 r2851kMod ba24899
Настройки программы : cabac=1 / ref=12 / deblock=1:2:2 / analyse=0x3:0x133 / me=umh / subme=11 / psy=1 / fade_compensate=0.00 / psy_rd=0.90:0.00 / mixed_ref=1 / me_range=32 / chroma_me=1 / trellis=2 / 8x8dct=1 / cqm=0 / deadzone=21,11 / fast_pskip=0 / chroma_qp_offset=-2 / threads=12 / lookahead_threads=2 / sliced_threads=0 / nr=0 / decimate=1 / interlaced=0 / bluray_compat=0 / constrained_intra=0 / bframes=8 / b_pyramid=2 / b_adapt=2 / b_bias=0 / direct=3 / weightb=1 / open_gop=0 / weightp=2 / keyint=240 / keyint_min=23 / scenecut=40 / intra_refresh=0 / rc_lookahead=60 / rc=crf / mbtree=1 / crf=16.5000 / qcomp=0.70 / qpmin=0 / qpmax=69 / qpstep=4 / ip_ratio=1.40 / aq=1:1.00
Default : Да
Forced : Нет
Аудио #1
Идентификатор : 2
Формат : AC-3
Формат/Информация : Audio Coding 3
Идентификатор кодека : A_AC3
Продолжительность : 23 м. 56 с.
Вид битрейта : Постоянный
Битрейт : 192 Кбит/сек
Каналы : 2 канала
Расположение каналов : Front: L R
Частота : 48,0 КГц
Частота кадров : 31,250 кадров/сек (1536 SPF)
Битовая глубина : 16 бит
Метод сжатия : С потерями
Размер потока : 32,9 Мбайт (5%)
Заголовок : DUB [Cartoon Network] - AC3 Dolby Digital, 2ch, 192 kbps, 48 kHz
Язык : Russian
ServiceKind/String : Complete Main
Default : Да
Forced : Нет
Аудио #2
Идентификатор : 3
Формат : AC-3
Формат/Информация : Audio Coding 3
Идентификатор кодека : A_AC3
Продолжительность : 23 м. 56 с.
Вид битрейта : Постоянный
Битрейт : 192 Кбит/сек
Каналы : 2 канала
Расположение каналов : Front: L R
Частота : 48,0 КГц
Частота кадров : 31,250 кадров/сек (1536 SPF)
Битовая глубина : 16 бит
Метод сжатия : С потерями
Размер потока : 32,9 Мбайт (5%)
Заголовок : Original - AC3 Dolby Digital, 2ch, 192 kbps, 48 kHz
Язык : English
ServiceKind/String : Complete Main
Default : Нет
Forced : Нет
Аудио #3
Идентификатор : 4
Формат : AC-3
Формат/Информация : Audio Coding 3
Идентификатор кодека : A_AC3
Продолжительность : 23 м. 56 с.
Вид битрейта : Постоянный
Битрейт : 192 Кбит/сек
Каналы : 2 канала
Расположение каналов : Front: L R
Частота : 48,0 КГц
Частота кадров : 31,250 кадров/сек (1536 SPF)
Битовая глубина : 16 бит
Метод сжатия : С потерями
Размер потока : 32,9 Мбайт (5%)
Заголовок : Commentary - AC3 Dolby Digital, 2ch, 192 kbps, 48 kHz
Язык : English
ServiceKind/String : Complete Main
Default : Нет
Forced : Нет
Текст
Идентификатор : 5
Формат : UTF-8
Идентификатор кодека : S_TEXT/UTF8
Идентификатор кодека/Информация : UTF-8 Plain Text
Продолжительность : 23 м. 41 с.
Битрейт : 25 бит/сек
ElementCount : 181
Размер потока : 4,46 Кбайт (0%)
Заголовок : Jack and the Three Blind Archers
Язык : English
Default : Нет
Forced : Нет
Меню
00:00:00.000 : en:Chapter 01
00:01:17.577 : en:Chapter 02
00:12:23.200 : en:Chapter 03
00:23:13.683 : en:Chapter 04

Второй сезон

Общее
Уникальный идентификатор : 210258441517781973682630069647764418243 (0x9E2E4D8818E3D6C2AD3CE85DAE48EEC3)
Полное имя : C:\Раздачи\Samurai.Jack.2001-2004.BDRip.720p-SergeZuich\02 Season\Samurai.Jack.S02E12.XXV.Jack.and.the.Spartans.720p.BDRip.DD2.0.x264-SergeZuich.mkv
Формат : Matroska
Версия формата : Version 4 / Version 2
Размер файла : 317 Мбайт
Продолжительность : 22 м. 52 с.
Общий поток : 1940 Кбит/сек
Название фильма : Samurai.Jack.S02E12.720p.BluRay.DD2.0.x264-pcroland.mkv
Дата кодирования : UTC 2018-01-02 04:53:24
Программа кодирования : mkvmerge v8.3.0 ('Over the Horizon') 64bit
Библиотека кодирования : libebml v1.3.1 + libmatroska v1.4.2
Видео
Идентификатор : 1
Формат : AVC
Формат/Информация : Advanced Video Codec
Профиль формата : High@L4.1
Настройки формата : CABAC / 12 Ref Frames
Параметр CABAC формата : Да
Параметр RefFrames формата : 12 кадров
Идентификатор кодека : V_MPEG4/ISO/AVC
Продолжительность : 22 м. 52 с.
Битрейт : 1362 Кбит/сек
Ширина : 960 пикселей
Высота : 720 пикселей
Соотношение сторон : 4:3
Режим частоты кадров : Постоянный
Частота кадров : 23,976 (24000/1001) кадра/сек
Цветовое пространство : YUV
Субдискретизация насыщенности : 4:2:0
Битовая глубина : 8 бит
Тип развёртки : Прогрессивная
Бит/(Пиксели*Кадры) : 0.082
Размер потока : 223 Мбайт (70%)
Заголовок : Jack and the Spartans
Библиотека кодирования : x264 core 152 r2851kMod ba24899
Настройки программы : cabac=1 / ref=12 / deblock=1:2:2 / analyse=0x3:0x133 / me=umh / subme=11 / psy=1 / fade_compensate=0.00 / psy_rd=0.90:0.00 / mixed_ref=1 / me_range=32 / chroma_me=1 / trellis=2 / 8x8dct=1 / cqm=0 / deadzone=21,11 / fast_pskip=0 / chroma_qp_offset=-2 / threads=12 / lookahead_threads=2 / sliced_threads=0 / nr=0 / decimate=1 / interlaced=0 / bluray_compat=0 / constrained_intra=0 / bframes=8 / b_pyramid=2 / b_adapt=2 / b_bias=0 / direct=3 / weightb=1 / open_gop=0 / weightp=2 / keyint=240 / keyint_min=23 / scenecut=40 / intra_refresh=0 / rc_lookahead=60 / rc=crf / mbtree=1 / crf=16.5000 / qcomp=0.70 / qpmin=0 / qpmax=69 / qpstep=4 / ip_ratio=1.40 / aq=1:1.00
Default : Да
Forced : Нет
Аудио #1
Идентификатор : 2
Формат : AC-3
Формат/Информация : Audio Coding 3
Идентификатор кодека : A_AC3
Продолжительность : 22 м. 52 с.
Вид битрейта : Постоянный
Битрейт : 192 Кбит/сек
Каналы : 2 канала
Расположение каналов : Front: L R
Частота : 48,0 КГц
Частота кадров : 31,250 кадров/сек (1536 SPF)
Битовая глубина : 16 бит
Метод сжатия : С потерями
Размер потока : 31,4 Мбайт (10%)
Заголовок : DUB [Cartoon Network] - AC3 Dolby Digital, 2ch, 192 kbps, 48 kHz
Язык : Russian
ServiceKind/String : Complete Main
Default : Да
Forced : Нет
Аудио #2
Идентификатор : 3
Формат : AC-3
Формат/Информация : Audio Coding 3
Идентификатор кодека : A_AC3
Продолжительность : 22 м. 52 с.
Вид битрейта : Постоянный
Битрейт : 192 Кбит/сек
Каналы : 2 канала
Расположение каналов : Front: L R
Частота : 48,0 КГц
Частота кадров : 31,250 кадров/сек (1536 SPF)
Битовая глубина : 16 бит
Метод сжатия : С потерями
Размер потока : 31,4 Мбайт (10%)
Заголовок : Original - AC3 Dolby Digital, 2ch, 192 kbps, 48 kHz
Язык : English
ServiceKind/String : Complete Main
Default : Нет
Forced : Нет
Аудио #3
Идентификатор : 4
Формат : AC-3
Формат/Информация : Audio Coding 3
Идентификатор кодека : A_AC3
Продолжительность : 22 м. 52 с.
Вид битрейта : Постоянный
Битрейт : 192 Кбит/сек
Каналы : 2 канала
Расположение каналов : Front: L R
Частота : 48,0 КГц
Частота кадров : 31,250 кадров/сек (1536 SPF)
Битовая глубина : 16 бит
Метод сжатия : С потерями
Размер потока : 31,4 Мбайт (10%)
Заголовок : Commentary - AC3 Dolby Digital, 2ch, 192 kbps, 48 kHz
Язык : English
ServiceKind/String : Complete Main
Default : Нет
Forced : Нет
Текст
Идентификатор : 5
Формат : UTF-8
Идентификатор кодека : S_TEXT/UTF8
Идентификатор кодека/Информация : UTF-8 Plain Text
Продолжительность : 22 м. 37 с.
Битрейт : 29 бит/сек
ElementCount : 197
Размер потока : 4,95 Кбайт (0%)
Заголовок : Jack and the Spartans
Язык : English
Default : Нет
Forced : Нет
Меню
00:00:00.000 : en:Chapter 01
00:01:17.494 : en:Chapter 02
00:10:43.059 : en:Chapter 03
00:22:09.494 : en:Chapter 04

Третий сезон

Общее
Уникальный идентификатор : 180257026703660906691446217041993553754 (0x879C3D942059B21F99604F3479EC575A)
Полное имя : C:\Раздачи\Samurai.Jack.2001-2004.BDRip.720p-SergeZuich\03 Season\Samurai.Jack.S03E01.XXVII.Chicken.Jack.720p.BDRip.DD2.0.x264-SergeZuich.mkv
Формат : Matroska
Версия формата : Version 4 / Version 2
Размер файла : 430 Мбайт
Продолжительность : 22 м. 32 с.
Общий поток : 2669 Кбит/сек
Название фильма : Samurai.Jack.S03E01.720p.BluRay.DD2.0.x264-pcroland.mkv
Дата кодирования : UTC 2018-01-10 13:17:02
Программа кодирования : mkvmerge v8.3.0 ('Over the Horizon') 64bit
Библиотека кодирования : libebml v1.3.1 + libmatroska v1.4.2
Видео
Идентификатор : 1
Формат : AVC
Формат/Информация : Advanced Video Codec
Профиль формата : High@L4.1
Настройки формата : CABAC / 12 Ref Frames
Параметр CABAC формата : Да
Параметр RefFrames формата : 12 кадров
Идентификатор кодека : V_MPEG4/ISO/AVC
Продолжительность : 22 м. 32 с.
Битрейт : 2283 Кбит/сек
Ширина : 960 пикселей
Высота : 720 пикселей
Соотношение сторон : 4:3
Режим частоты кадров : Постоянный
Частота кадров : 23,976 (24000/1001) кадра/сек
Цветовое пространство : YUV
Субдискретизация насыщенности : 4:2:0
Битовая глубина : 8 бит
Тип развёртки : Прогрессивная
Бит/(Пиксели*Кадры) : 0.138
Размер потока : 368 Мбайт (86%)
Заголовок : Chicken Jack
Библиотека кодирования : x264 core 152 r2851kMod ba24899
Настройки программы : cabac=1 / ref=12 / deblock=1:2:2 / analyse=0x3:0x133 / me=umh / subme=11 / psy=1 / fade_compensate=0.00 / psy_rd=0.90:0.00 / mixed_ref=1 / me_range=32 / chroma_me=1 / trellis=2 / 8x8dct=1 / cqm=0 / deadzone=21,11 / fast_pskip=0 / chroma_qp_offset=-2 / threads=12 / lookahead_threads=2 / sliced_threads=0 / nr=0 / decimate=1 / interlaced=0 / bluray_compat=0 / constrained_intra=0 / bframes=8 / b_pyramid=2 / b_adapt=2 / b_bias=0 / direct=3 / weightb=1 / open_gop=0 / weightp=2 / keyint=240 / keyint_min=23 / scenecut=40 / intra_refresh=0 / rc_lookahead=60 / rc=crf / mbtree=1 / crf=16.5000 / qcomp=0.70 / qpmin=0 / qpmax=69 / qpstep=4 / ip_ratio=1.40 / aq=1:1.00
Default : Да
Forced : Нет
Аудио #1
Идентификатор : 2
Формат : AC-3
Формат/Информация : Audio Coding 3
Идентификатор кодека : A_AC3
Продолжительность : 22 м. 32 с.
Вид битрейта : Постоянный
Битрейт : 192 Кбит/сек
Каналы : 2 канала
Расположение каналов : Front: L R
Частота : 48,0 КГц
Частота кадров : 31,250 кадров/сек (1536 SPF)
Битовая глубина : 16 бит
Метод сжатия : С потерями
Размер потока : 31,0 Мбайт (7%)
Заголовок : DUB [Cartoon Network] - AC3 Dolby Digital, 2ch, 192 kbps, 48 kHz
Язык : Russian
ServiceKind/String : Complete Main
Default : Да
Forced : Нет
Аудио #2
Идентификатор : 3
Формат : AC-3
Формат/Информация : Audio Coding 3
Идентификатор кодека : A_AC3
Продолжительность : 22 м. 32 с.
Вид битрейта : Постоянный
Битрейт : 192 Кбит/сек
Каналы : 2 канала
Расположение каналов : Front: L R
Частота : 48,0 КГц
Частота кадров : 31,250 кадров/сек (1536 SPF)
Битовая глубина : 16 бит
Метод сжатия : С потерями
Размер потока : 31,0 Мбайт (7%)
Заголовок : Original - AC3 Dolby Digital, 2ch, 192 kbps, 48 kHz
Язык : English
ServiceKind/String : Complete Main
Default : Нет
Forced : Нет
Текст
Идентификатор : 4
Формат : UTF-8
Идентификатор кодека : S_TEXT/UTF8
Идентификатор кодека/Информация : UTF-8 Plain Text
Продолжительность : 22 м. 17 с.
Битрейт : 30 бит/сек
ElementCount : 220
Размер потока : 4,94 Кбайт (0%)
Заголовок : Chicken Jack
Язык : English
Default : Нет
Forced : Нет
Меню
00:00:00.000 : en:Chapter 01
00:01:17.494 : en:Chapter 02
00:12:48.893 : en:Chapter 03
00:21:49.683 : en:Chapter 04

Четвёртый сезон

Общее
Уникальный идентификатор : 236375565250726543749374751248197044363 (0xB1D4472603582528918BFE60AEDF488B)
Полное имя : C:\Раздачи\Samurai.Jack.2001-2004.BDRip.720p-SergeZuich\04 Season\Samurai.Jack.S04E01.XL.Samurai.vs.Ninja.720p.BDRip.DD2.0.x264-SergeZuich.mkv
Формат : Matroska
Версия формата : Version 4 / Version 2
Размер файла : 383 Мбайт
Продолжительность : 22 м. 29 с.
Общий поток : 2383 Кбит/сек
Название фильма : Samurai.Jack.S04E01.720p.BluRay.DD2.0.x264-pcroland.mkv
Дата кодирования : UTC 2018-02-03 04:33:51
Программа кодирования : mkvmerge v8.3.0 ('Over the Horizon') 64bit
Библиотека кодирования : libebml v1.3.1 + libmatroska v1.4.2
Видео
Идентификатор : 1
Формат : AVC
Формат/Информация : Advanced Video Codec
Профиль формата : High@L4.1
Настройки формата : CABAC / 12 Ref Frames
Параметр CABAC формата : Да
Параметр RefFrames формата : 12 кадров
Идентификатор кодека : V_MPEG4/ISO/AVC
Продолжительность : 22 м. 29 с.
Битрейт : 1997 Кбит/сек
Ширина : 960 пикселей
Высота : 720 пикселей
Соотношение сторон : 4:3
Режим частоты кадров : Постоянный
Частота кадров : 23,976 (24000/1001) кадра/сек
Цветовое пространство : YUV
Субдискретизация насыщенности : 4:2:0
Битовая глубина : 8 бит
Тип развёртки : Прогрессивная
Бит/(Пиксели*Кадры) : 0.120
Размер потока : 321 Мбайт (84%)
Заголовок : Jack vs. the Ninja
Библиотека кодирования : x264 core 152 r2851kMod ba24899
Настройки программы : cabac=1 / ref=12 / deblock=1:2:2 / analyse=0x3:0x133 / me=umh / subme=11 / psy=1 / fade_compensate=0.00 / psy_rd=0.90:0.00 / mixed_ref=1 / me_range=32 / chroma_me=1 / trellis=2 / 8x8dct=1 / cqm=0 / deadzone=21,11 / fast_pskip=0 / chroma_qp_offset=-2 / threads=12 / lookahead_threads=2 / sliced_threads=0 / nr=0 / decimate=1 / interlaced=0 / bluray_compat=0 / constrained_intra=0 / bframes=8 / b_pyramid=2 / b_adapt=2 / b_bias=0 / direct=3 / weightb=1 / open_gop=0 / weightp=2 / keyint=240 / keyint_min=23 / scenecut=40 / intra_refresh=0 / rc_lookahead=60 / rc=crf / mbtree=1 / crf=16.5000 / qcomp=0.70 / qpmin=0 / qpmax=69 / qpstep=4 / ip_ratio=1.40 / aq=1:1.00
Default : Да
Forced : Нет
Аудио #1
Идентификатор : 2
Формат : AC-3
Формат/Информация : Audio Coding 3
Идентификатор кодека : A_AC3
Продолжительность : 22 м. 29 с.
Вид битрейта : Постоянный
Битрейт : 192 Кбит/сек
Каналы : 2 канала
Расположение каналов : Front: L R
Частота : 48,0 КГц
Частота кадров : 31,250 кадров/сек (1536 SPF)
Битовая глубина : 16 бит
Метод сжатия : С потерями
Размер потока : 30,9 Мбайт (8%)
Заголовок : DUB [Cartoon Network] - AC3 Dolby Digital, 2ch, 192 kbps, 48 kHz
Язык : Russian
ServiceKind/String : Complete Main
Default : Да
Forced : Нет
Аудио #2
Идентификатор : 3
Формат : AC-3
Формат/Информация : Audio Coding 3
Идентификатор кодека : A_AC3
Продолжительность : 22 м. 29 с.
Вид битрейта : Постоянный
Битрейт : 192 Кбит/сек
Каналы : 2 канала
Расположение каналов : Front: L R
Частота : 48,0 КГц
Частота кадров : 31,250 кадров/сек (1536 SPF)
Битовая глубина : 16 бит
Метод сжатия : С потерями
Размер потока : 30,9 Мбайт (8%)
Заголовок : Original - AC3 Dolby Digital, 2ch, 192 kbps, 48 kHz
Язык : English
ServiceKind/String : Complete Main
Default : Нет
Forced : Нет
Текст
Идентификатор : 4
Формат : UTF-8
Идентификатор кодека : S_TEXT/UTF8
Идентификатор кодека/Информация : UTF-8 Plain Text
Продолжительность : 22 м. 15 с.
Битрейт : 17 бит/сек
ElementCount : 135
Размер потока : 2,87 Кбайт (0%)
Заголовок : Jack vs. the Ninja
Язык : English
Default : Нет
Forced : Нет
Меню
00:00:00.000 : en:Chapter 01
00:01:17.494 : en:Chapter 02
00:11:55.631 : en:Chapter 03
00:21:47.097 : en:Chapter 04
[Профиль] [ЛС]
Показать сообщения:    
Ответить на тему

Текущее время: 19-Фев 16:36

Часовой пояс: UTC + 3



Вы не можете начинать темы
Вы не можете отвечать на сообщения
Вы не можете редактировать свои сообщения
Вы не можете удалять свои сообщения
Вы не можете голосовать в опросах
Вы не можете прикреплять файлы к сообщениям
Вы можете скачивать файлы