Статистика раздачи
Размер:  6,62 GB   |    Зарегистрирован:  4 месяца 6 дней   |    Скачан:  0 раз

Полного источника не было: Никогда

 
   
 
 

DR_KTO ®

Пол:
Не указан
Стаж:
4 месяца 7 дней
Сообщений:
97

Давайте рисовать! (вып. 201-224)
Дата/Год выпуска: 2013
Страна: Россия
Жанр: Детская телепередача
Продолжительность: 24 х 20 мин.
Перевод: Не требуется
Русские субтитры: нет
Описание: Добрая фея Фиалка и ее помощник Каляка-Маляка научат рисовать всех-всех-всех, главное — желание!
Присоединяйтесь!
Доп. информация: Запись с канала "Карусель". Нумерация выпусков - с него же. В раздаче выпуски с номерами с 201 по 224.
качество: SATRip
формат: AVI
Видео: 704x560 (4:3), 25 fps, XviD build 64 ~1796 kbps avg, 0.18 bit/pixel
Аудио: 48 kHz, MPEG Layer 3, 2 ch, ~128.00 kbps avg

Список выпусков/серий

201. Вертолёт-стрекоза.avi
202. Кормушка для птичек-синичек.avi
203. Сказочная щука.avi
204. Дикобраз.avi
205. Какаду - друг пирата.avi
206. Кувшинчик с дождём.avi
207. Лесной доктор - дятел.avi
208. Утёнок на пруду.avi
209. Кактус.avi
210. Сосульки за окном.avi
211. Кит среди пароходов.avi
212. Царица-ящерица.avi
213. Страна воздушных шаров.avi
214. Цирковой аттракцион.avi
215. Сапоги-скороходы.avi
216. Шляпа гнома.avi
217. Паук-ключник.avi
218. Бегемот.avi
219. Кот-повар.avi
220. Теремок.avi
221. Ручеёк.avi
222. Хамелеон.avi
223. Зебра в городе.avi
224. Шахматное королевство.avi
05.07.15 добавлен выпуск №221. Ручеёк.avi
Релиз:
Ссылка на предыдущие и альтернативные раздачи: http://cybertorrent.ru/tracker.php?nm=%D0%94%D0%B0%D0%B2%D0%B0%D0%B9%D1%82%D0...0%B0%D1%82%D1%8C

MediaInfo

Общее
Полное имя : H:\01 РАЗДАЧИ ШОУ\Давайте рисовать 201-224\Давайте рисовать 201-224\201. Вертолёт-стрекоза.avi
Формат : AVI
Формат/Информация : Audio Video Interleave
Размер файла : 283 Мбайт
Продолжительность : 20 м.
Общий поток : 1938 Кбит/сек
Программа кодирования : Lavf54.63.100
Видео
Идентификатор : 0
Формат : MPEG-4 Visual
Профиль формата : Simple@L3
Параметр BVOP формата : Нет
Параметр QPel формата : Нет
Параметр GMC формата : Без точки перехода
Параметр матрицы формата : Default (H.263)
Идентификатор кодека : XVID
Идентификатор кодека/Подсказка : XviD
Продолжительность : 20 м.
Битрейт : 1797 Кбит/сек
Ширина : 704 пикселя
Высота : 560 пикселей
Соотношение сторон : 4:3
Частота кадров : 25,000 кадров/сек
Цветовое пространство : YUV
Субдискретизация насыщенности : 4:2:0
Битовая глубина : 8 бит
Тип развёртки : Прогрессивная
Метод сжатия : С потерями
Бит/(Пиксели*Кадры) : 0.182
Размер потока : 262 Мбайт (93%)
Библиотека кодирования : XviD 64
Аудио
Идентификатор : 1
Формат : MPEG Audio
Версия формата : Version 1
Профиль формата : Layer 3
Идентификатор кодека : 55
Идентификатор кодека/Подсказка : MP3
Продолжительность : 20 м.
Вид битрейта : Постоянный
Битрейт : 128 Кбит/сек
Каналы : 2 канала
Частота : 48,0 КГц
Метод сжатия : С потерями
Размер потока : 18,7 Мбайт (7%)
Выравнивание : Соединение по промежуткам
Продолжительность промежутка : 24 мс. (0,60 видеокадр)
Время предзагрузки промежутка : 24 мс.

Скриншоты

[www.cybertorrent.ru].t2113.torrent 
Торрент: Зарегистрирован [ 2018-02-16 11:35 ] · 5197CC5DCA54D61EA376CFD826951EEF55158528

Скачать .torrent

Скачать

35 KB

Статус: проверено
Скачан: 0 раз
Размер: 6,62 GB
Профиль [ЛС]
Показать сообщения:    

Текущее время: 23-Июн 02:07

Часовой пояс: UTC ± 0



Вы не можете начинать темы
Вы не можете отвечать на сообщения
Вы не можете редактировать свои сообщения
Вы не можете удалять свои сообщения
Вы не можете голосовать в опросах
Вы не можете прикреплять файлы к сообщениям
Вы можете скачивать файлы