BitTorrent клиенты



Приключения с большим автомобилем / Einfach Blumen aufs Dach (Роланд Эме / Roland Oehme) [1979, ГДР, комедия, VHSRip-AVC] [Советская прокатная копия] Dub (Горького)

Ответить на тему
 
Автор Сообщение

Keeper ®

Пол: Не указан

Стаж: 1 год

Сообщений: 499

Создавать темы 06-Фев-2018 00:54

[Цитировать]

Приключения с большим автомобилем / Einfach Blumen aufs Dach [Советская прокатная копия]- Страна: ГДР
Жанр: комедия
Год выпуска: 1979
Продолжительность: 01:16:14-Перевод: Профессиональный (дублированный) - Киностудия им. М. Горького, Ялтинский филиал
Субтитры: нет-Режиссер: Роланд Эме / Roland Oehme
В ролях: Мартин Треттау, Барбара Диттус, Ларс Юнг, Карл Хайнц Хойнски, Вернер Годеман, Яки Шварц, Альберт Хеттерле, Марианна Вюншер, Томас Нойман, Кармен-Майя Энтони...- | Релиз: -Описание: Героя фильма, монтажника высоковольтных линий Ханнеса Блашке, одолевают сомнения. Старенький «Трабант» уже тесноват для его разросшегося семейства. Какую же машину приобрести взамен? А может, не гнаться за модными и дорогими марками, купив списанный на металлолом старый черный лимузин, отремонтировать его, подновить…-Семпл: http://sendfile.su/1394766-Тип релиза: VHSRip-AVC
Контейнер: MKV
Видео: 688x432 (1.593), 25.000 fps, AVC, ~1830 Kbps, 0.246 bits/pixel
Аудио: Русский, 48.0 KHz, AC3, 1 ch, 192 Kbps

MediaInfo

General
Unique ID : 173444718370294821576671612353808682187 (0x827C3CD8A15BD7AAE2F7C6C1EDA7CCCB)
Complete name : Приключения с большим автомобилем 1979 Dub Горького.mkv
Format : Matroska
Format version : Version 4 / Version 2
File size : 1.08 GiB
Duration : 1 h 16 min
Overall bit rate : 2 024 kb/s
Encoded date : UTC 2018-01-28 16:07:20
Writing application : mkvmerge v20.0.0 ('I Am The Sun') 64-bit
Writing library : libebml v1.3.5 + libmatroska v1.4.8
Video
ID : 1
Format : AVC
Format/Info : Advanced Video Codec
Format profile : High@L4.1
Format settings : CABAC / 16 Ref Frames
Format settings, CABAC : Yes
Format settings, RefFrames : 16 frames
Codec ID : V_MPEG4/ISO/AVC
Duration : 1 h 16 min
Bit rate : 1 830 kb/s
Width : 688 pixels
Height : 432 pixels
Display aspect ratio : 16:10
Frame rate mode : Constant
Frame rate : 25.000 FPS
Color space : YUV
Chroma subsampling : 4:2:0
Bit depth : 8 bits
Scan type : Progressive
Bits/(Pixel*Frame) : 0.246
Stream size : 998 MiB (90%)
Writing library : x264 core 152 r2851kMod ba24899
Encoding settings : cabac=1 / ref=16 / deblock=1:-3:-2 / analyse=0x3:0x133 / me=umh / subme=11 / psy=1 / fade_compensate=0.00 / psy_rd=1.00:0.00 / mixed_ref=1 / me_range=48 / chroma_me=1 / trellis=2 / 8x8dct=1 / cqm=0 / deadzone=21,11 / fast_pskip=0 / chroma_qp_offset=-2 / threads=12 / lookahead_threads=2 / sliced_threads=0 / nr=0 / decimate=1 / interlaced=0 / bluray_compat=0 / constrained_intra=0 / bframes=7 / b_pyramid=2 / b_adapt=2 / b_bias=0 / direct=3 / weightb=1 / open_gop=0 / weightp=0 / keyint=250 / keyint_min=25 / scenecut=40 / intra_refresh=0 / rc_lookahead=70 / rc=crf / mbtree=0 / crf=18.0000 / qcomp=0.60 / qpmin=0 / qpmax=69 / qpstep=4 / vbv_maxrate=50000 / vbv_bufsize=62500 / crf_max=0.0 / nal_hrd=none / filler=0 / ip_ratio=1.40 / pb_ratio=1.30 / aq=3:0.75
Default : Yes
Forced : No
Color range : Limited
Color primaries : BT.601 PAL
Transfer characteristics : BT.470 System B, BT.470 System G
Matrix coefficients : BT.470 System B, BT.470 System G
Audio
ID : 2
Format : AC-3
Format/Info : Audio Coding 3
Format settings, Endianness : Big
Codec ID : A_AC3
Duration : 1 h 16 min
Bit rate mode : Constant
Bit rate : 192 kb/s
Channel(s) : 1 channel
Channel positions : Front: C
Sampling rate : 48.0 kHz
Frame rate : 31.250 FPS (1536 SPF)
Bit depth : 16 bits
Compression mode : Lossy
Stream size : 105 MiB (9%)
Language : Russian
Service kind : Complete Main
Default : Yes
Forced : No
[Профиль] [ЛС]
Показать сообщения:    
Ответить на тему

Текущее время: 21-Фев 23:30

Часовой пояс: UTC + 3



Вы не можете начинать темы
Вы не можете отвечать на сообщения
Вы не можете редактировать свои сообщения
Вы не можете удалять свои сообщения
Вы не можете голосовать в опросах
Вы не можете прикреплять файлы к сообщениям
Вы можете скачивать файлы