BitTorrent клиенты



Клоун (Наталья Збандут) [1980, трагикомедия, экранизация, SATRip]

Ответить на тему
 
Автор Сообщение

JetGun ®

Пол: Не указан

Стаж: 1 год

Сообщений: 437

Создавать темы 06-Фев-2018 00:54

[Цитировать]

Клоун (2 серии) Год выпуска: 1980.
Жанр: трагикомедия, экранизация.
Продолжительность: 01:07:50 + 01:17:12 (02:25:02).
Режиссер: Наталья Збандут.
В ролях:
Анатолий Марчевский, Наталья Варлей, Наталия Трубникова, Владимир Наумцев, Валентин Никулин, Юрий Каморный, Римма Быкова, А. Голицын, Елена Камбурова, Лев Гришин, Д. Левинсон, Мария Стерникова, Владимир Пицек, Ира Гоменюк, Ольга Лапикура, Алексей Воскресенский, Владимир Алексеенко.
Описание:
Трагикомедия по мотивам повести Виктора Драгунского "Сегодня и ежедневно".
Известный клоун Николай Ветров, возвращается после длительных гастролей в Московский цирк, где работал долгие годы. Время многое изменило, и прошлые связи восстановить не просто. Случайно он узнаёт, что его любимая собирается выйти замуж за другого... Но у него есть новая программа и прежняя цель - смешить людей.

Доп. информация:
Страна: СССР .
Киностудия: Одесская киностудия при участии Гостелерадио СССР.
Авторы сценария: Денис Драгунский, Виктор Драгунский.
Оператор: Альберт Осипов.
Композитор: Владимир Дашкевич.
Художники-постановщики: Михаил Кац, Владимир Шинкевич.

Еще постер

Релиз
Рип с этой раздачи.
Большое спасибо Cheef mate за предоставленый материал для рипа!!!

Качество: SATRip
Формат: AVI

Видео

1-я серия - 640x480 (1.33:1), 25 fps, XviD build 73 ~1408 kbps avg, 0.18 bit/pixel
2-я серия - 640x480 (1.33:1), 25 fps, XviD build 73 ~1222 kbps avg, 0.16 bit/pixel
Аудио: 48 kHz, MPEG Layer 3, 2 ch, ~128.00 kbps avg

Отчет MI

1-я серия:
General
Complete name : Kloun.(2.serii).1980.XviD.SATRip_1.48\Kloun.1980_1.48_1-ya.seriya.avi
Format : AVI
Format/Info : Audio Video Interleave
File size : 750 MiB
Duration : 1h 7mn
Overall bit rate : 1 546 Kbps
Writing application : VirtualDubMod 1.5.10.3 | www.virtualdub-fr.org || (build 2550/release)
Writing library : VirtualDubMod build 2550/release
Video
ID : 0
Format : MPEG-4 Visual
Format profile : Advanced Simple@L5
Format settings, BVOP : 1
Format settings, QPel : No
Format settings, GMC : No warppoints
Format settings, Matrix : Custom
Codec ID : XVID
Codec ID/Hint : XviD
Duration : 1h 7mn
Bit rate : 1 409 Kbps
Width : 640 pixels
Height : 480 pixels
Display aspect ratio : 4:3
Frame rate : 25.000 fps
Color space : YUV
Chroma subsampling : 4:2:0
Bit depth : 8 bits
Scan type : Progressive
Compression mode : Lossy
Bits/(Pixel*Frame) : 0.183
Stream size : 683 MiB (91%)
Writing library : XviD 73
Audio
ID : 1
Format : MPEG Audio
Format version : Version 1
Format profile : Layer 3
Codec ID : 55
Codec ID/Hint : MP3
Duration : 1h 7mn
Bit rate mode : Constant
Bit rate : 128 Kbps
Channel(s) : 2 channels
Sampling rate : 48.0 KHz
Compression mode : Lossy
Stream size : 62.1 MiB (8%)
Alignment : Aligned on interleaves
Interleave, duration : 40 ms (1.00 video frame)
Interleave, preload duratio : 504 ms
Writing library : LAME3.99r
Encoding settings : -m s -V 4 -q 2 -lowpass 17 -b 128
2-я серия:
General
Complete name : Kloun.(2.serii).1980.XviD.SATRip_1.48\Kloun.1980_1.48_2-ya.seriya.avi
Format : AVI
Format/Info : Audio Video Interleave
File size : 751 MiB
Duration : 1h 17mn
Overall bit rate : 1 360 Kbps
Writing application : VirtualDubMod 1.5.10.3 | www.virtualdub-fr.org || (build 2550/release)
Writing library : VirtualDubMod build 2550/release
Video
ID : 0
Format : MPEG-4 Visual
Format profile : Advanced Simple@L5
Format settings, BVOP : 1
Format settings, QPel : No
Format settings, GMC : No warppoints
Format settings, Matrix : Custom
Codec ID : XVID
Codec ID/Hint : XviD
Duration : 1h 17mn
Bit rate : 1 222 Kbps
Width : 640 pixels
Height : 480 pixels
Display aspect ratio : 4:3
Frame rate : 25.000 fps
Color space : YUV
Chroma subsampling : 4:2:0
Bit depth : 8 bits
Scan type : Progressive
Compression mode : Lossy
Bits/(Pixel*Frame) : 0.159
Stream size : 675 MiB (90%)
Writing library : XviD 73
Audio
ID : 1
Format : MPEG Audio
Format version : Version 1
Format profile : Layer 3
Codec ID : 55
Codec ID/Hint : MP3
Duration : 1h 17mn
Bit rate mode : Constant
Bit rate : 128 Kbps
Channel(s) : 2 channels
Sampling rate : 48.0 KHz
Compression mode : Lossy
Stream size : 70.7 MiB (9%)
Alignment : Aligned on interleaves
Interleave, duration : 40 ms (1.00 video frame)
Interleave, preload duratio : 504 ms
Writing library : LAME3.99r
Encoding settings : -m s -V 4 -q 2 -lowpass 17 -b 128

Скриншоты


[Профиль] [ЛС]
Показать сообщения:    
Ответить на тему

Текущее время: 23-Фев 00:06

Часовой пояс: UTC + 3



Вы не можете начинать темы
Вы не можете отвечать на сообщения
Вы не можете редактировать свои сообщения
Вы не можете удалять свои сообщения
Вы не можете голосовать в опросах
Вы не можете прикреплять файлы к сообщениям
Вы можете скачивать файлы