BitTorrent клиенты



Клоун (Наталья Збандут) [1980, трагикомедия, экранизация, SATRip]

Ответить на тему
 
Автор Сообщение

JetGun ®

Пол: Не указан

Стаж: 1 год

Сообщений: 437

Создавать темы 06-Фев-2018 00:54

[Цитировать]

Клоун (2 серии) Год выпуска: 1980.
Жанр: трагикомедия, экранизация.
Продолжительность: 01:07:50 + 01:17:12 (02:25:02).
Режиссер: Наталья Збандут.
В ролях:
Анатолий Марчевский, Наталья Варлей, Наталия Трубникова, Владимир Наумцев, Валентин Никулин, Юрий Каморный, Римма Быкова, А. Голицын, Елена Камбурова, Лев Гришин, Д. Левинсон, Мария Стерникова, Владимир Пицек, Ира Гоменюк, Ольга Лапикура, Алексей Воскресенский, Владимир Алексеенко.
Описание:
Трагикомедия по мотивам повести Виктора Драгунского "Сегодня и ежедневно".
Известный клоун Николай Ветров, возвращается после длительных гастролей в Московский цирк, где работал долгие годы. Время многое изменило, и прошлые связи восстановить не просто. Случайно он узнаёт, что его любимая собирается выйти замуж за другого... Но у него есть новая программа и прежняя цель - смешить людей.

Доп. информация:
Страна: СССР .
Киностудия: Одесская киностудия при участии Гостелерадио СССР.
Авторы сценария: Денис Драгунский, Виктор Драгунский.
Оператор: Альберт Осипов.
Композитор: Владимир Дашкевич.
Художники-постановщики: Михаил Кац, Владимир Шинкевич.

Еще постер

Релиз
Рип с этой раздачи.
Большое спасибо Cheef mate за предоставленый материал для рипа!!!

Качество: SATRip
Формат: AVI

Видео

1-я серия - 720x544 (1.32:1), 25 fps, XviD build 73 ~2099 kbps avg, 0.21 bit/pixel
2-я серия - 720x544 (1.32:1), 25 fps, XviD build 73 ~1821 kbps avg, 0.19 bit/pixel
Аудио: 48 kHz, AC3 Dolby Digital, 2/0 (L,R) ch, ~192 kbps

Отчет MI

1-я серия:
General
Complete name : Kloun.(2.serii).1980.XviD.SATRip_2.18.fenixclub\Kloun.1980_2.18_1-ya.seriya.avi
Format : AVI
Format/Info : Audio Video Interleave
File size : 1.09 GiB
Duration : 1h 7mn
Overall bit rate : 2 301 Kbps
Writing application : VirtualDubMod 1.5.10.3 | www.virtualdub-fr.org || (build 2550/release)
Writing library : VirtualDubMod build 2550/release
Video
ID : 0
Format : MPEG-4 Visual
Format profile : Advanced Simple@L5
Format settings, BVOP : 1
Format settings, QPel : No
Format settings, GMC : No warppoints
Format settings, Matrix : Custom
Codec ID : XVID
Codec ID/Hint : XviD
Duration : 1h 7mn
Bit rate : 2 100 Kbps
Width : 720 pixels
Height : 544 pixels
Display aspect ratio : 4:3
Frame rate : 25.000 fps
Color space : YUV
Chroma subsampling : 4:2:0
Bit depth : 8 bits
Scan type : Progressive
Compression mode : Lossy
Bits/(Pixel*Frame) : 0.214
Stream size : 1 019 MiB (91%)
Writing library : XviD 73
Audio
ID : 1
Format : AC-3
Format/Info : Audio Coding 3
Mode extension : CM (complete main)
Format settings, Endianness : Big
Codec ID : 2000
Duration : 1h 7mn
Bit rate mode : Constant
Bit rate : 192 Kbps
Channel(s) : 2 channels
Channel positions : Front: L R
Sampling rate : 48.0 KHz
Frame rate : 31.250 fps (1536 spf)
Compression mode : Lossy
Stream size : 93.2 MiB (8%)
Alignment : Split accross interleaves
Interleave, duration : 40 ms (1.00 video frame)
Interleave, preload duratio : 500 ms.
2-я серия:
General
Complete name : Kloun.(2.serii).1980.XviD.SATRip_2.18.fenixclub\Kloun.1980_2.18_2-ya.seriya.avi
Format : AVI
Format/Info : Audio Video Interleave
File size : 1.09 GiB
Duration : 1h 17mn
Overall bit rate : 2 023 Kbps
Writing application : VirtualDubMod 1.5.10.3 | www.virtualdub-fr.org || (build 2550/release)
Writing library : VirtualDubMod build 2550/release
Video
ID : 0
Format : MPEG-4 Visual
Format profile : Advanced Simple@L5
Format settings, BVOP : 1
Format settings, QPel : No
Format settings, GMC : No warppoints
Format settings, Matrix : Custom
Codec ID : XVID
Codec ID/Hint : XviD
Duration : 1h 17mn
Bit rate : 1 822 Kbps
Width : 720 pixels
Height : 544 pixels
Display aspect ratio : 4:3
Frame rate : 25.000 fps
Color space : YUV
Chroma subsampling : 4:2:0
Bit depth : 8 bits
Scan type : Progressive
Compression mode : Lossy
Bits/(Pixel*Frame) : 0.186
Stream size : 1 006 MiB (90%)
Writing library : XviD 73
Audio
ID : 1
Format : AC-3
Format/Info : Audio Coding 3
Mode extension : CM (complete main)
Format settings, Endianness : Big
Codec ID : 2000
Duration : 1h 17mn
Bit rate mode : Constant
Bit rate : 192 Kbps
Channel(s) : 2 channels
Channel positions : Front: L R
Sampling rate : 48.0 KHz
Frame rate : 31.250 fps (1536 spf)
Compression mode : Lossy
Stream size : 106 MiB (9%)
Alignment : Split accross interleaves
Interleave, duration : 40 ms (1.00 video frame)
Interleave, preload duratio : 500 ms.

Скриншоты


[Профиль] [ЛС]
Показать сообщения:    
Ответить на тему

Текущее время: 20-Фев 06:51

Часовой пояс: UTC + 3



Вы не можете начинать темы
Вы не можете отвечать на сообщения
Вы не можете редактировать свои сообщения
Вы не можете удалять свои сообщения
Вы не можете голосовать в опросах
Вы не можете прикреплять файлы к сообщениям
Вы можете скачивать файлы