Статистика раздачи
Размер:  6,08 GB   |    Зарегистрирован:  10 месяцев 1 день   |    Скачан:  0 раз

Полного источника не было: Никогда

 
   
 
 

Volga ®

Пол:
Не указан
Стаж:
10 месяцев 3 дня
Сообщений:
92

Игрушечная история террора
Toy Story of Terror
Год выпуска: 2013
Страна: США
Жанр: короткометражный анимационный фильм
Продолжительность: 00:21:40
Перевод:
Профессиональный (Дублированный) - Невафильм
Любительский (Многоголосый закадровый) - SkyeFilmTV
Одноголосый закадровый - Вадим Белов
Одноголосый закадровый - Андрей Жариков
русские субтитры: есть-Режиссёр: Энгус МакЛэйн : Angus MacLane-Роли озвучивали: Том Хэнкс, Тим Аллен, Джоан Кьюсак, Карл Уэзерс, Стивен Тоболовски, Тимоти Далтон, Уоллес Шоун, Дон Риклз, Кристен Шол, Кейт МакКиннон-Описание: Вуди, Джесси, Баз, Рекс и другие знакомые и незнакомые персонажи проведут ночь в мотеле. Им придется столкнуться с настоящим чудовищем и другими опасностями в ожидании рассвета.- релиз: -- За чистый голос спасибо Вадиму Белову
- За чистый голос спасибо SkyeFilmTV
- За исходник спасибо xfiles
- За рус/укр дубляж спасибо xfiles
- Работа с BDRemux'ом и звуком -Azureus--Качество: BDRemux 1080p
Формат: MKV
Видео кодек: AVC
Аудио кодек: AC3 : DTS MA
Видео: 1920x1080 , 23.976 fps, ~34,0 Мbps avg
Аудио #1: [RUS] 48 kHz, AC3 Dolby Digital, 3/2 (L,C,R,l,r) + LFE ch, ~448 kbps avg - DUB
Аудио #2: [RUS] 7.1 / 48 kHz / 4317 kbps / 24-bit (DTS Core: 5.1 / 48 kHz / 1509 kbps / 24-bit) - MVO /SkyeFilmTV/
Аудио #3: [RUS] 7.1 / 48 kHz / 4328 kbps / 24-bit (DTS Core: 5.1 / 48 kHz / 1509 kbps / 24-bit) - VO /Вадим Белов/
Аудио #4: [RUS] 48 kHz, AC3 Dolby Digital, 6 ch, ~488 kbps - VO /Андрей Жариков/
Аудио #5: [UKR] 48 kHz, AC3 Dolby Digital, 2/0 (L,R) ch, ~192 kbps avg
Аудио #6: [ENG] 7.1 / 48 kHz / 4331 kbps / 24-bit (DTS Core: 5.1 / 48 kHz / 1509 kbps / 24-bit)
Аудио #7: [ENG] 48 kHz, AC3 Dolby Digital, 2/0 (L,R) ch, ~320 kbps avg - coment
субтитры: русские - CasStudioTV, украинские, английские (full, SDH, coment)
навигация по главам: 10 глав (не именные)

MediaInfo

Общее
Уникальный идентификатор : 206258751698458089615784398894219977254 (0x9B2BFD993191665FBE0D0A5D4D0CE226)
Полное имя : D:\Mult\Toy Story of Terror.2013.BDRemux 1080p.mkv
Формат : Matroska
Версия формата : Version 4 / Version 2
Размер файла : 6,08 Гбайт
Продолжительность : 21 м. 40 с.
Режим общего битрейта : Переменный
Общий поток : 40,2 Мбит/сек
Название фильма : Toy Story of Terror.2013.BDRemux 1080p -Azureus-
Дата кодирования : UTC 2017-12-14 19:22:04
Программа кодирования : mkvmerge v13.0.0 ('The Juggler') 64bit
Библиотека кодирования : libebml v1.3.4 + libmatroska v1.4.5
Видео
Идентификатор : 1
Формат : AVC
Формат/Информация : Advanced Video Codec
Профиль формата : High@L4.1
Настройки формата : CABAC / 4 Ref Frames
Параметр CABAC формата : Да
Параметр RefFrames формата : 4 кадра
Идентификатор кодека : V_MPEG4/ISO/AVC
Продолжительность : 21 м. 40 с.
Вид битрейта : Переменный
Битрейт : 25,7 Мбит/сек
Максимальный битрейт : 34,0 Мбит/сек
Ширина : 1920 пикселей
Высота : 1080 пикселей
Соотношение сторон : 16:9
Режим частоты кадров : Постоянный
Частота кадров : 23,976 (24000/1001) кадра/сек
Цветовое пространство : YUV
Субдискретизация насыщенности : 4:2:0
Битовая глубина : 8 бит
Тип развёртки : Прогрессивная
Бит/(Пиксели*Кадры) : 0.517
Размер потока : 3,89 Гбайт (64%)
Язык : English
Default : Да
Forced : Нет
Аудио #1
Идентификатор : 2
Формат : AC-3
Формат/Информация : Audio Coding 3
Идентификатор кодека : A_AC3
Продолжительность : 21 м. 40 с.
Вид битрейта : Постоянный
Битрейт : 448 Кбит/сек
Каналы : 6 каналов
Расположение каналов : Front: L C R, Side: L R, LFE
Частота : 48,0 КГц
Частота кадров : 31,250 кадров/сек (1536 SPF)
Битовая глубина : 16 бит
Метод сжатия : С потерями
Размер потока : 69,5 Мбайт (1%)
Заголовок : DUB
Язык : Russian
ServiceKind/String : Complete Main
Default : Да
Forced : Нет
Аудио #2
Идентификатор : 3
Формат : DTS
Формат/Информация : Digital Theater Systems
Профиль формата : MA / Core
Идентификатор кодека : A_DTS
Продолжительность : 21 м. 40 с.
Вид битрейта : Переменный / Постоянный
Битрейт : 4380 Кбит/сек / 1509 Кбит/сек
Каналы : 8 каналов / 6 каналов
Расположение каналов : Front: L C R, Side: L R, Back: L R, LFE / Front: L C R, Side: L R, LFE
Частота : 48,0 КГц
Частота кадров : 93,750 кадра/сек (512 SPF)
Битовая глубина : 24 бит
Метод сжатия : Без потерь / Lossy
Размер потока : 679 Мбайт (11%)
Заголовок : MVO - SkyeFilmTV
Язык : Russian
Default : Нет
Forced : Нет
Аудио #3
Идентификатор : 4
Формат : DTS
Формат/Информация : Digital Theater Systems
Профиль формата : MA / Core
Идентификатор кодека : A_DTS
Продолжительность : 21 м. 40 с.
Вид битрейта : Переменный / Постоянный
Битрейт : 4342 Кбит/сек / 1509 Кбит/сек
Каналы : 8 каналов / 6 каналов
Расположение каналов : Front: L C R, Side: L R, Back: L R, LFE / Front: L C R, Side: L R, LFE
Частота : 48,0 КГц
Частота кадров : 93,750 кадра/сек (512 SPF)
Битовая глубина : 24 бит
Метод сжатия : Без потерь / Lossy
Размер потока : 673 Мбайт (11%)
Заголовок : VO - Вадим Белов
Язык : Russian
Default : Нет
Forced : Нет
Аудио #4
Идентификатор : 5
Формат : AC-3
Формат/Информация : Audio Coding 3
Идентификатор кодека : A_AC3
Продолжительность : 21 м. 40 с.
Вид битрейта : Постоянный
Битрейт : 448 Кбит/сек
Каналы : 6 каналов
Расположение каналов : Front: L C R, Side: L R, LFE
Частота : 48,0 КГц
Частота кадров : 31,250 кадров/сек (1536 SPF)
Битовая глубина : 16 бит
Метод сжатия : С потерями
Размер потока : 69,5 Мбайт (1%)
Заголовок : VO - Андрей Жариков
Язык : Russian
ServiceKind/String : Complete Main
Default : Нет
Forced : Нет
Аудио #5
Идентификатор : 6
Формат : AC-3
Формат/Информация : Audio Coding 3
Идентификатор кодека : A_AC3
Продолжительность : 21 м. 40 с.
Вид битрейта : Постоянный
Битрейт : 192 Кбит/сек
Каналы : 2 канала
Расположение каналов : Front: L R
Частота : 48,0 КГц
Частота кадров : 31,250 кадров/сек (1536 SPF)
Битовая глубина : 16 бит
Метод сжатия : С потерями
Размер потока : 29,8 Мбайт (0%)
Заголовок : UKR
Язык : Ukrainian
ServiceKind/String : Complete Main
Default : Нет
Forced : Нет
Аудио #6
Идентификатор : 7
Формат : DTS
Формат/Информация : Digital Theater Systems
Профиль формата : MA / Core
Идентификатор кодека : A_DTS
Продолжительность : 21 м. 40 с.
Вид битрейта : Переменный / Постоянный
Битрейт : 4317 Кбит/сек / 1509 Кбит/сек
Каналы : 8 каналов / 6 каналов
Расположение каналов : Front: L C R, Side: L R, Back: L R, LFE / Front: L C R, Side: L R, LFE
Частота : 48,0 КГц
Частота кадров : 93,750 кадра/сек (512 SPF)
Битовая глубина : 24 бит
Метод сжатия : Без потерь / Lossy
Размер потока : 669 Мбайт (11%)
Заголовок : ENG
Язык : English
Default : Нет
Forced : Нет
Аудио #7
Идентификатор : 8
Формат : AC-3
Формат/Информация : Audio Coding 3
Идентификатор кодека : A_AC3
Продолжительность : 21 м. 40 с.
Вид битрейта : Постоянный
Битрейт : 320 Кбит/сек
Каналы : 2 канала
Расположение каналов : Front: L R
Частота : 48,0 КГц
Частота кадров : 31,250 кадров/сек (1536 SPF)
Битовая глубина : 16 бит
Метод сжатия : С потерями
Размер потока : 49,6 Мбайт (1%)
Заголовок : ENG - coment
Язык : English
ServiceKind/String : Complete Main
Default : Нет
Forced : Нет
Текст #1
Идентификатор : 9
Формат : UTF-8
Идентификатор кодека : S_TEXT/UTF8
Идентификатор кодека/Информация : UTF-8 Plain Text
Продолжительность : 21 м. 30 с.
Битрейт : 138 бит/сек
ElementCount : 371
Размер потока : 21,8 Кбайт (0%)
Заголовок : Rus Sub - CasStudioTV
Язык : Russian
Default : Нет
Forced : Нет
Текст #2
Идентификатор : 10
Формат : UTF-8
Идентификатор кодека : S_TEXT/UTF8
Идентификатор кодека/Информация : UTF-8 Plain Text
Продолжительность : 21 м. 29 с.
Битрейт : 129 бит/сек
ElementCount : 376
Размер потока : 20,4 Кбайт (0%)
Заголовок : Ukr Sub - full
Язык : Ukrainian
Default : Нет
Forced : Нет
Текст #3
Идентификатор : 11
Формат : UTF-8
Идентификатор кодека : S_TEXT/UTF8
Идентификатор кодека/Информация : UTF-8 Plain Text
Продолжительность : 21 м. 10 с.
Битрейт : 77 бит/сек
ElementCount : 392
Размер потока : 12,0 Кбайт (0%)
Заголовок : Eng Sub - full
Язык : English
Default : Нет
Forced : Нет
Текст #4
Идентификатор : 12
Формат : UTF-8
Идентификатор кодека : S_TEXT/UTF8
Идентификатор кодека/Информация : UTF-8 Plain Text
Продолжительность : 21 м. 27 с.
Битрейт : 92 бит/сек
ElementCount : 496
Размер потока : 14,5 Кбайт (0%)
Заголовок : Eng Sub - SDH
Язык : English
Default : Нет
Forced : Нет
Текст #5
Идентификатор : 13
Формат : UTF-8
Идентификатор кодека : S_TEXT/UTF8
Идентификатор кодека/Информация : UTF-8 Plain Text
Продолжительность : 21 м. 24 с.
Битрейт : 112 бит/сек
ElementCount : 372
Размер потока : 17,7 Кбайт (0%)
Заголовок : Eng Sub - coment
Язык : English
Default : Нет
Forced : Нет
Меню
00:00:00.000 : en:00:00:00.000
00:02:21.683 : en:00:02:21.683
00:03:22.744 : en:00:03:22.744
00:05:37.254 : en:00:05:37.254
00:07:16.770 : en:00:07:16.770
00:09:48.004 : en:00:09:48.004
00:12:18.363 : en:00:12:18.363
00:15:31.931 : en:00:15:31.931
00:17:53.531 : en:00:17:53.531
00:19:54.777 : en:00:19:54.777
[www.cybertorrent.ru].t2101.torrent 
Торрент: Зарегистрирован [ 2018-02-16 11:35 ] · F9566A2DB0FFDF7C4257236A593FB17082FED9E4

Скачать .torrent

Скачать

16 KB

Статус: проверено
Скачан: 0 раз
Размер: 6,08 GB
Профиль [ЛС]
Показать сообщения:    

Текущее время: 18-Дек 11:08

Часовой пояс: UTC ± 0



Вы не можете начинать темы
Вы не можете отвечать на сообщения
Вы не можете редактировать свои сообщения
Вы не можете удалять свои сообщения
Вы не можете голосовать в опросах
Вы не можете прикреплять файлы к сообщениям
Вы можете скачивать файлы
Torrents24.ru открытый BitTorrent Torrents24.pl открытый BitTorrent CyberTorrent.ru открытый BitTorrent BtList.ru рейтинг BitTorrent трекеров Яндекс.Метрика