Статистика раздачи
Размер:  5,09 GB   |    Зарегистрирован:  8 месяцев 3 дня   |    Скачан:  0 раз

Полного источника не было: Никогда

 
   
 
 

irkutsk ®

Пол:
Не указан
Стаж:
8 месяцев 4 дня
Сообщений:
620

-Южный Парк / South ParkСезон 2, Серии 01-18-- Год выпуска: 1998-1999
Страна: США
Жанр: комедия, мультсериал
Продолжительность: ~ 00:20:00 x 18
Перевод 1: Авторский одноголосый закадровый [Гоблин]
Перевод 2: Профессиональный двухголосый закадровый [MTV]
Перевод 3: Профессиональный двухголосый закадровый [Paramount Comedy]*
Перевод 4: Профессиональный двухголосый закадровый [Ren-TV]**
Субтитры: отсутствуют-Режиссёр: Мэтт Стоун, Трей Паркер-Описание: Южный Парк / South Park — американский мультсериал, созданный Мэттом Стоуном и Треем Паркером. Иногда название переводится также как «Саут-Парк» или «Саус-Парк». Выпускается кабельным телеканалом Comedy Central с 1997 года. Основу сюжета составляют приключения четырёх мальчиков и их друзей, живущих в маленьком городке Саут-Парк, штат Колорадо. Сериал высмеивает недостатки американской культуры и текущие мировые события, а также подвергает критике множество глубоких убеждений и табу посредством пародии и чёрного юмора. «Южный Парк» выходит поздно вечером и позиционируется как мультфильм для взрослых.-*: Кроме серий: 1, 8, 18
**: Кроме серий: 1, 2, 6, 7-Рип найден в сети, источник неизвестен, но судя по всему НЕ iTunes. Дорожки с переводами взяты из других раздач на трекере, за что спасибо их авторам-[ Все раздачи сериала ] | [ Сэмпл ]-Качество: WEBRip
Формат: MKV
Видео кодек: H.264
Аудио кодек: AC3
Видео: H.264, 1280 x 720, 29.970 fps, ~ 1 Mbps
Аудио 1: AC3, 48 kHz, 2 ch, 192 kbps [Русский, Гоблин]
Аудио 2: AC3, 48 kHz, 2 ch, 192 kbps [Русский, MTV]
Аудио 3: AC3, 48 kHz, 2 ch, 192 kbps [Русский, Paramount Comedy]
Аудио 4: AC3, 48 kHz, 2 ch, 192 kbps [Русский, Ren-TV]
Аудио 5: AC3, 48 kHz, 2 ch, 192 kbps [Английский]
-

MI

General
Unique ID : 232951049402281826016711715888064081305 (0xAF40BD7B423A179DBF41D475608FAD99)
Complete name : South.Park.S02E03.WEB.720p.Rus.Eng.mkv
Format : Matroska
Format version : Version 4 / Version 2
File size : 316 MiB
Duration : 22mn 7s
Overall bit rate : 1 995 Kbps
Movie name : South Park - Season 2 Episode 3 - Chickenlover / Куролюб
Encoded date : UTC 2014-11-23 16:36:44
Writing application : mkvmerge v7.0.0 ('Where We Going') 32bit built on Jun 9 2014 15:08:34
Writing library : libebml v1.3.0 + libmatroska v1.4.1
DURATION : 00:22:07.648000000
NUMBER_OF_FRAMES : 41489
NUMBER_OF_BYTES : 31863552
_STATISTICS_WRITING_APP : mkvmerge v7.0.0 ('Where We Going') 32bit built on Jun 9 2014 15:08:34
_STATISTICS_WRITING_DATE_UTC : 2014-11-23 16:36:44
_STATISTICS_TAGS : BPS DURATION NUMBER_OF_FRAMES NUMBER_OF_BYTES
Video
ID : 1
Format : AVC
Format/Info : Advanced Video Codec
Format profile : High@L4.0
Format settings, CABAC : Yes
Format settings, ReFrames : 6 frames
Codec ID : V_MPEG4/ISO/AVC
Duration : 22mn 7s
Bit rate : 995 Kbps
Width : 1 280 pixels
Height : 720 pixels
Display aspect ratio : 16:9
Frame rate mode : Constant
Frame rate : 29.970 fps
Color space : YUV
Chroma subsampling : 4:2:0
Bit depth : 8 bits
Scan type : Progressive
Bits/(Pixel*Frame) : 0.036
Stream size : 157 MiB (50%)
Title : South Park - S02E03
Language : English
Default : Yes
Forced : No
Audio #1
ID : 2
Format : AC-3
Format/Info : Audio Coding 3
Mode extension : CM (complete main)
Format settings, Endianness : Big
Codec ID : A_AC3
Duration : 22mn 7s
Bit rate mode : Constant
Bit rate : 192 Kbps
Channel(s) : 2 channels
Channel positions : Front: L R
Sampling rate : 48.0 KHz
Bit depth : 16 bits
Compression mode : Lossy
Stream size : 30.4 MiB (10%)
Title : AVO Goblin
Language : Russian
Default : Yes
Forced : No
Audio #2
ID : 3
Format : AC-3
Format/Info : Audio Coding 3
Mode extension : CM (complete main)
Format settings, Endianness : Big
Codec ID : A_AC3
Duration : 22mn 7s
Bit rate mode : Constant
Bit rate : 192 Kbps
Channel(s) : 2 channels
Channel positions : Front: L R
Sampling rate : 48.0 KHz
Bit depth : 16 bits
Compression mode : Lossy
Stream size : 30.4 MiB (10%)
Title : DVO MTV
Language : Russian
Default : No
Forced : No
Audio #3
ID : 4
Format : AC-3
Format/Info : Audio Coding 3
Mode extension : CM (complete main)
Format settings, Endianness : Big
Codec ID : A_AC3
Duration : 22mn 7s
Bit rate mode : Constant
Bit rate : 192 Kbps
Channel(s) : 2 channels
Channel positions : Front: L R
Sampling rate : 48.0 KHz
Bit depth : 16 bits
Compression mode : Lossy
Stream size : 30.4 MiB (10%)
Title : DVO Paramount Comedy
Language : Russian
Default : No
Forced : No
Audio #4
ID : 5
Format : AC-3
Format/Info : Audio Coding 3
Mode extension : CM (complete main)
Format settings, Endianness : Big
Codec ID : A_AC3
Duration : 22mn 7s
Bit rate mode : Constant
Bit rate : 192 Kbps
Channel(s) : 2 channels
Channel positions : Front: L R
Sampling rate : 48.0 KHz
Bit depth : 16 bits
Compression mode : Lossy
Stream size : 30.4 MiB (10%)
Title : DVO Ren-TV
Language : Russian
Default : No
Forced : No
Audio #5
ID : 6
Format : AC-3
Format/Info : Audio Coding 3
Mode extension : CM (complete main)
Format settings, Endianness : Big
Codec ID : A_AC3
Duration : 22mn 7s
Bit rate mode : Constant
Bit rate : 192 Kbps
Channel(s) : 2 channels
Channel positions : Front: L R
Sampling rate : 48.0 KHz
Bit depth : 16 bits
Compression mode : Lossy
Stream size : 30.4 MiB (10%)
Title : Original
Language : English
Default : No
Forced : No
- -

Сравнение с DVD




-

Внимание! Раздача ведётся путём добавления новых серий

Внимание! Раздача ведётся путём добавления новых серий; при каждом добавлении создётся новый торрент. Чтобы
начать докачку новой серии, пользователям необходимо сделать следующее:
  • Остановить скачивание.
  • Удалить старый торрент у себя из клиента (старые серии удалять не надо).
  • Скачать новый торрент и запустить его у себя в клиенте вместо старого, при этом указать клиенту путь в старую папку куда и
    должно происходить скачивание новых серий.
    Ваш клиент при этом должен произвести хеширование (проверку) старой папки (если не производит сам - помогите ему сделать
    это), и будет докачивать только те серии которых у вас ещё нет. Старые серии при этом не удаляются, а продолжают раздаваться!
    Eсли вы уже удалили старые серии, то предотвратить повторную закачку старых серий можно, отжав галочку в соответсвующих местах при
    запуске нового торрента. По возможности, желательно не удалять старые серии как можно дольше чтобы релизёр не столько продолжал
    раздавать старые серии, а смог сконцентрироваться на новых.
  • -Добавлены 14-18 серии-
    [www.cybertorrent.ru].t2094.torrent 
    Торрент: Зарегистрирован [ 2018-02-16 08:44 ] · 45DEBF31BED5BE5E36D82F81DF997A348FA5B52A

    Скачать .torrent

    Скачать

    27 KB

    Статус: проверено
    Скачан: 0 раз
    Размер: 5,09 GB
    Профиль [ЛС]
    Показать сообщения:    

    Текущее время: 20-Окт 02:35

    Часовой пояс: UTC ± 0



    Вы не можете начинать темы
    Вы не можете отвечать на сообщения
    Вы не можете редактировать свои сообщения
    Вы не можете удалять свои сообщения
    Вы не можете голосовать в опросах
    Вы не можете прикреплять файлы к сообщениям
    Вы можете скачивать файлы
    Torrents24.ru открытый BitTorrent Torrents24.pl открытый BitTorrent CyberTorrent.ru открытый BitTorrent BtList.ru рейтинг BitTorrent трекеров Яндекс.Метрика