BitTorrent клиенты



Невозмутимый / Холодный как камень / Без эмоций / Stone Cold (Крэйг Р. Баксли /Craig R. Baxley) [1991, США, Боевик, криминал. драма, VHSRip] [Full Screen] AVO (Алексей Михалев)

Ответить на тему
 
Автор Сообщение

Frozen ®

Пол: Не указан

Стаж: 1 год

Сообщений: 231

Создавать темы 06-Фев-2018 00:55

[Цитировать]

Невозмутимый / Холодный как камень / Без эмоций / Stone Cold
[Full Screen]
Страна: США
Жанр: Боевик, криминал. драма
Год выпуска: 1991
Продолжительность: 01:32:09
Перевод: Авторский (одноголосый закадровый) Алексей Михалев
Субтитры: нет
Режиссер: Крэйг Р. Баксли /Craig R. Baxley
В ролях: Брайан Босворт, Лэнс Хенриксен, Иллэна Дайамант, Уильям Форсайт, Арабелла Хольцбог, Сэм МакМюррей, Ричард Гант, Дэвид Тресс, Ивэн Джеймс, Тони Пирс, Билли Милион, Роберт Уинли, Грегори Скотт Камминс, Деметре Филлипс, Мэджик Шварц, Бренда Джеймс, Пол М. Лэйн, Джин Хартлайн, Джон Хэтли, Трэйси Хатчинсон, Дженнифер Синнотт, Джон Р. Грэнтхем, Томас Ф. Ибарра, Майкл Рен, Билл Грэттон, Майкл Джеймс
Описание: Аннотация от alenavova
Пришедший в кинематограф из профессионального футбола Брайен Босуорт дебютирует в роли полицейского, который внедряется в банду рокеров, терроризирующую городок в штате Миссисипи, подминая под себя не только рядовых его жителей или подпольных бизнесменов, но и местные органы власти, включая представителей правосудия. Полиция пытается сыграть на том, что рокерами активно интересуются как блюстители закона, так и мафиозные группировки. Внешность и манеры поведения полицейского Джо Хава позволяют ему выдать себя среди рокеров за своего и под именем Джо Стоуна начать разработку операции по захвату всей моторизованной и до зубов вооруженной банды, которой руководит безжалостный "Чейнз". Крутой боевик с хорошими трюковыми съемками (мотоцикл, сбивающий вертолет, производит очень сильный эффект) и впечатляющими психологическими типажами. Заметно, что разгул моторизованной преступности сильно беспокоит Америку...
Доп. информация: Оцифровка VHS (личный архив) и получение VHSRip alenavova
Эксклюзив для rutracker.org. При размещении данного релиза на других сайтах ссылка на автора alenavova обязательна
Релиз
Сэмпл: http://multi-up.com/1184686
Качество видео: VHSRip
Формат видео: AVI
Видео: 704x528 (1.33:1), 25 fps, XviD build 73 ~1922 kbps avg, 0.21 bit/pixel
Аудио: 48 kHz, AC3 Dolby Digital, 2/0 (L,R) ch, ~192 kbps

MediaInfo

Невозмутимый - Stone Cold (by alenavova).avi
Format : AVI
Format/Info : Audio Video Interleave
File size : 1.37 GiB
Duration : 1 h 32 min
Overall bit rate : 2 124 kb/s
Movie name : Невозмутимый - Stone Cold (by alenavova)
Director : by alenavova
Writing application : VirtualDubMod 1.5.10.3 | www.virtualdub-fr.org || (build 2550/release)
Copyright : Edich2
Comment : Rutracker.org
Video
ID : 0
Format : MPEG-4 Visual
Format profile : Advanced Simple@L5
Format settings, BVOP : 2
Format settings, QPel : No
Format settings, GMC : No warppoints
Format settings, Matrix : Custom
Codec ID : XVID
Codec ID/Hint : XviD
Duration : 1 h 32 min
Bit rate : 1 923 kb/s
Width : 704 pixels
Height : 528 pixels
Display aspect ratio : 4:3
Frame rate : 25.000 FPS
Color space : YUV
Chroma subsampling : 4:2:0
Bit depth : 8 bits
Scan type : Progressive
Compression mode : Lossy
Bits/(Pixel*Frame) : 0.207
Stream size : 1.24 GiB (91%)
Writing library : XviD 73
Audio
ID : 1
Format : AC-3
Format/Info : Audio Coding 3
Mode extension : CM (complete main)
Format settings, Endianness : Big
Codec ID : 2000
Duration : 1 h 32 min
Bit rate mode : Constant
Bit rate : 192 kb/s
Channel(s) : 2 channels
Channel positions : Front: L R
Sampling rate : 48.0 kHz
Frame rate : 31.250 FPS (1536 spf)
Bit depth : 16 bits
Compression mode : Lossy
Stream size : 127 MiB (9%)
Alignment : Split accross interleaves
Interleave, duration : 40 ms (1.00 video frame)
Interleave, preload duration : 500 ms

Скриншоты


[Профиль] [ЛС]
Показать сообщения:    
Ответить на тему

Текущее время: 20-Фев 06:55

Часовой пояс: UTC + 3



Вы не можете начинать темы
Вы не можете отвечать на сообщения
Вы не можете редактировать свои сообщения
Вы не можете удалять свои сообщения
Вы не можете голосовать в опросах
Вы не можете прикреплять файлы к сообщениям
Вы можете скачивать файлы