Статистика раздачи
Размер:  18,13 GB   |    Зарегистрирован:  9 месяцев 24 дня   |    Скачан:  0 раз

Полного источника не было: Никогда

 
   
 
 

antikvar ®

Пол:
Не указан
Стаж:
9 месяцев 25 дней
Сообщений:
50


Великий Человек-Паук / Совершенный Человек-Паук / Ultimate Spider-Man
- Страна: США
Жанр: Мультсериал, приключения, экранизация комиксов, комедия
Продолжительность: 22 минуты
Год выпуска: 2013
Перевод: Профессиональный (дублированный) (Невафильм)
Русские субтитры: нет
Режиссёр: Тим Элдред, Алекс Сото / Tim Eldred, Alex Soto
Роли озвучивали: Александр Быковский, Екатерина Гороховская, Валерий Смекалов, Олег Куликович, Эльвира Ишмуратова и другие
Описание: «Великий Человек-Паук» (англ. Ultimate Spider-Man) — американский комедийный мультсериал о приключениях знаменитого супергероя Человека-паука из комиксов Marvel, премьера которого состоялась 1 апреля 2012 года на телеканале Disney XD. Мультсериал основан на одноимённой серии комиксов, повествующих о ещё молодом Человеке-пауке. Ник Фьюри предложил пройти Паркеру, являющемуся героем на протяжении года, тренировочный курс для улучшения собственных навыков. В ходе обучения Человек-паук обзаводится командой из Люка Кейджа (Неуязвимый Человек), Железного Кулака (Дэниел «Дэнни» Рэнд), Новы (Сэм Александр) и Белой Тигрицы (Ава Айала). Также в его распоряжении оказывается множество высокотехнологичных гаджетов. Сериал насыщен юмором, гэгами и многочисленными закадровыми вставками с комментариями героя. Отличается хорошей современной рисовкой, но в нём часто встречается заимствованный из аниме эффект чиби-сцен.
Список серий:
1. Ящер
2. Электро
3. Носорог
4. Крэйвен-Охотник
5. Соколиный Глаз
6. Зловещая Шестёрка
7. Челвек-Пак
8. Карнаж
9. Арестованный Дом
10. Человек-Волк
11. Рой
12. Кроха Человек-Паук
13. Путешествие Железного Кулака
14. Невероятный Паук-Халк
15. Стен рядом со мной
16. Беспардонный Дэдпул
17. Бомба-Веном
18. Хранители Галактики
19. Родительская ловушка
20. Конец Игры
21. Блэйд
22. Ревущая команда
23. Герой со второй попытки
24. Возвращение Песочного Человека
25. Возвращение Зловещей Шестёрки
26. Великий
Ссылка на предыдущие и альтернативные раздачи: http://cybertorrent.ru/tracker.php?nm=Ultimate+Spider-man
Семпл: http://multi-up.com/1013065
Качество: WEB-DL
Формат: MKV
Видео: MPEG4 Video (H264) 1280x720 23.97fps ~3800Kbps
Аудио: Русская дорожка: Dolby AC3 48000Hz stereo 192kbps
Аудио 2: Оригинал: Dolby AC3 48000Hz 6ch 384Kbps
Субтитры: Английские

Подробные технические данные

General
Unique ID : 177401413520516328690497577790125168569 (0x857644FA8439A99D8E20C86E9110D7B9)
Complete name : F:\USM Season 2 Russian\USM.s02e20.Game Over (rus,eng).mkv
Format : Matroska
Format version : Version 4 / Version 2
File size : 713 MiB
Duration : 22mn 8s
Overall bit rate : 4 501 Kbps
Encoded date : UTC 2014-11-14 11:20:38
Writing application : mkvmerge v7.1.0 ('Good Love') 64bit built on Jul 27 2014 13:06:55
Writing library : libebml v1.3.0 + libmatroska v1.4.1
DURATION : 00:22:08.576000000
NUMBER_OF_FRAMES : 41518
NUMBER_OF_BYTES : 31885824
_STATISTICS_WRITING_APP : mkvmerge v7.1.0 ('Good Love') 64bit built on Jul 27 2014 13:06:55
_STATISTICS_WRITING_DATE_UTC : 2014-11-14 11:20:38
_STATISTICS_TAGS : BPS DURATION NUMBER_OF_FRAMES NUMBER_OF_BYTES
Video
ID : 1
Format : AVC
Format/Info : Advanced Video Codec
Format profile : High@L3.1
Format settings, CABAC : No
Format settings, ReFrames : 2 frames
Codec ID : V_MPEG4/ISO/AVC
Duration : 22mn 8s
Bit rate : 3 835 Kbps
Width : 1 280 pixels
Height : 720 pixels
Display aspect ratio : 16:9
Frame rate mode : Constant
Frame rate : 23.976 fps
Color space : YUV
Chroma subsampling : 4:2:0
Bit depth : 8 bits
Scan type : Progressive
Bits/(Pixel*Frame) : 0.174
Stream size : 607 MiB (85%)
Language : English
Default : Yes
Forced : No
Color primaries : BT.709
Transfer characteristics : BT.709
Matrix coefficients : BT.709
Audio #1
ID : 2
Format : AC-3
Format/Info : Audio Coding 3
Mode extension : CM (complete main)
Format settings, Endianness : Big
Codec ID : A_AC3
Duration : 22mn 8s
Bit rate mode : Constant
Bit rate : 192 Kbps
Channel(s) : 2 channels
Channel positions : Front: L R
Sampling rate : 48.0 KHz
Bit depth : 16 bits
Compression mode : Lossy
Stream size : 30.4 MiB (4%)
Language : Russian
Default : Yes
Forced : No
Audio #2
ID : 3
Format : AC-3
Format/Info : Audio Coding 3
Mode extension : CM (complete main)
Format settings, Endianness : Big
Codec ID : A_AC3
Duration : 22mn 8s
Bit rate mode : Constant
Bit rate : 384 Kbps
Channel(s) : 6 channels
Channel positions : Front: L C R, Side: L R, LFE
Sampling rate : 48.0 KHz
Bit depth : 16 bits
Compression mode : Lossy
Stream size : 60.8 MiB (9%)
Title : Original
Language : English
Default : No
Forced : No
Text
ID : 4
Format : UTF-8
Codec ID : S_TEXT/UTF8
Codec ID/Info : UTF-8 Plain Text
Language : English
Default : No
Forced : No

Скриншоты

Внимание! Раздача ведётся путём добавления новых серий

Внимание! Раздача ведётся путём добавления новых серий. При каждом добавлении создаётся новый торрент. Чтобы начать докачку новой серии, пользователям необходимо сделать следующее:
1. Остановить скачивание.
2. Удалить старый торрент у себя из клиента (старые серии удалять не надо).
3. Скачать новый торрент и запустить его у себя в клиенте вместо старого, при этом указать клиенту путь в старую папку куда и должно происходить скачивание новых серий.
Ваш клиент при этом должен произвести хеширование (проверку) старой папки (если не производит сам - помогите ему сделать это), и будет докачивать только те серии которых у вас ещё нет. Старые серии при этом не удаляются, а продолжают раздаваться!
Eсли вы уже удалили старые серии, то предотвратить повторную закачку старых серий можно, отжав галочку в соответствующих местах при запуске нового торрента. По возможности, желательно не удалять старые серии как можно дольше, чтобы релизер не столько продолжал раздавать старые серии, а смог сконцентрироваться на новых.
Запись дубляжа: zzz666_31_rus, ZheGalua
[www.cybertorrent.ru].t2081.torrent 
Торрент: Зарегистрирован [ 2018-02-16 08:44 ] · 022B836A546064F45FF88A9911884A0A1B75F407

Скачать .torrent

Скачать

48 KB

Статус: проверено
Скачан: 0 раз
Размер: 18,13 GB
Профиль [ЛС]
Показать сообщения:    

Текущее время: 12-Дек 16:53

Часовой пояс: UTC ± 0



Вы не можете начинать темы
Вы не можете отвечать на сообщения
Вы не можете редактировать свои сообщения
Вы не можете удалять свои сообщения
Вы не можете голосовать в опросах
Вы не можете прикреплять файлы к сообщениям
Вы можете скачивать файлы
Torrents24.ru открытый BitTorrent Torrents24.pl открытый BitTorrent CyberTorrent.ru открытый BitTorrent BtList.ru рейтинг BitTorrent трекеров Яндекс.Метрика