BitTorrent клиенты



Непропеченный / Недотёпы / Half Baked (Тамра Дэвис / Tamra Davis) [1998, США, Комедия, криминал, VHSRip] [Full Screen] MVO (Премьер)

Ответить на тему
 
Автор Сообщение

Frozen ®

Пол: Не указан

Стаж: 1 год

Сообщений: 231

Создавать темы 06-Фев-2018 00:55

[Цитировать]

Непропеченный / Недотёпы / Half Baked
[Full Screen]
«A comedy about best buds!»
Страна: США
Жанр: Комедия, криминал
Год выпуска: 1998
Продолжительность: 01:18:49
Перевод: Профессиональный (многоголосый закадровый) Премьер
Субтитры: нет
Режиссер: Тамра Дэвис / Tamra Davis
В ролях: Дэвид Чаппелл, Гильермо Диаз, Джим Брюэр, Харланд Уильямс, Рэйчел Тру, Кларенс Уильямс, Лаура Силверман, Томми Чонг, Р.Д. Рейд, Грегг Рогелл
Описание: Парень по имени Кенни случайно убивает лошадь полицейского, покормив ее едой из фаст-фуда. Откуда было знать Кенни, что кобыла всю жизнь страдала диабетом? Беднягу сажают в тюрьму, выпустить его могут только под залог в миллион долларов. Трое друзей Кенни думают, как им собрать нужную сумму, и изобретают хитроумный план. Но как водится, все внезапно рушится...
Доп. информация: Оцифровка лицензионной VHS (личный архив) и получение VHSRip alenavova
Эксклюзив для rutracker.org. При размещении данного релиза на других сайтах ссылка на автора alenavova обязательна.
Релиз
Сэмпл: https://yadi.sk/i/1Zz1q7at3RgBUY
Качество видео: VHSRip
Формат видео: AVI
Видео: 704x528 (1.33:1), 25 fps, XviD build 73 ~2279 kbps avg, 0.25 bit/pixel
Аудио: 48 kHz, AC3 Dolby Digital, 2/0 (L,R) ch, ~192 kbps

MediaInfo

Непропеченный - Half Baked (by alenavova).avi
Format : AVI
Format/Info : Audio Video Interleave
File size : 1.37 GiB
Duration : 1 h 18 min
Overall bit rate : 2 481 kb/s
Movie name : Непропеченный - Half Baked (Премьер)_T01
Director : by alenavova
Writing application : VirtualDubMod 1.5.10.3 | www.virtualdub-fr.org || (build 2550/release)
Copyright : Edich2
Comment : RuTracker.org
Video
ID : 0
Format : MPEG-4 Visual
Format profile : Advanced Simple@L5
Format settings, BVOP : 2
Format settings, QPel : No
Format settings, GMC : No warppoints
Format settings, Matrix : Custom
Codec ID : XVID
Codec ID/Hint : XviD
Duration : 1 h 18 min
Bit rate : 2 280 kb/s
Width : 704 pixels
Height : 528 pixels
Display aspect ratio : 4:3
Frame rate : 25.000 FPS
Color space : YUV
Chroma subsampling : 4:2:0
Bit depth : 8 bits
Scan type : Progressive
Compression mode : Lossy
Bits/(Pixel*Frame) : 0.245
Stream size : 1.26 GiB (92%)
Writing library : XviD 73
Audio
ID : 1
Format : AC-3
Format/Info : Audio Coding 3
Format settings, Endianness : Big
Codec ID : 2000
Duration : 1 h 18 min
Bit rate mode : Constant
Bit rate : 192 kb/s
Channel(s) : 2 channels
Channel positions : Front: L R
Sampling rate : 48.0 kHz
Frame rate : 31.250 FPS (1536 spf)
Bit depth : 16 bits
Compression mode : Lossy
Stream size : 108 MiB (8%)
Alignment : Split accross interleaves
Interleave, duration : 40 ms (1.00 video frame)
Interleave, preload duratio : 500 ms
Service kind : Complete Main

Скриншоты


[Профиль] [ЛС]
Показать сообщения:    
Ответить на тему

Текущее время: 23-Фев 00:05

Часовой пояс: UTC + 3



Вы не можете начинать темы
Вы не можете отвечать на сообщения
Вы не можете редактировать свои сообщения
Вы не можете удалять свои сообщения
Вы не можете голосовать в опросах
Вы не можете прикреплять файлы к сообщениям
Вы можете скачивать файлы