Статистика раздачи
Размер:  30,75 GB   |    Зарегистрирован:  5 месяцев 27 дней   |    Скачан:  0 раз

Полного источника не было: Никогда

 
   
 
 

martin ®

Пол:
Не указан
Стаж:
5 месяцев 27 дней
Сообщений:
47

Аватар: Легенда о Корре / The Legend of Korra- Страна: США
Жанр: мультсериал, приключения, семейный, фэнтези
Продолжительность: ~ 24 минуты
Год выпуска: 2012-Перевод: Любительский (многоголосый закадровый) Flux-Team
Русские субтитры: нет

-Режиссёр: Майкл Димартино, Брайан Кониецко
Роли озвучивали: Джанет Вэрни, Дж.К. Симмонс, Ди Брэдли Бейкер, Мария Бэмфорд, Кирнан Шипка, Дарси Роуз Бернс, Лэнс Хенриксен, П.Дж. Бирн, Дэвид Фаустино, Данте Баско
Автор перевода: HelenZubr в редакции AndreyP
Текст читали: Natemily, Die_Otter, Tomas, Inimyo и Андрей Авдеев-Описание: Все в этом мире быстротечно... и жизни великих проходят так же быстро как и обычных людей... Аватар Аанг изменил мир к лучшему, проделав не малый труд , не раз рисковав своей жизнью, и вот настало время нового аватара, которым была признана Корра, на пути этой девушки станут не только люди желающие получить власть ради собственной выгоды, но и ее собственный нрав, ей предстоит обрести мудрость и силу духа, найти друзей и соратников, ведь путь Аватара это очень не легкая ноша для молодой девушки.-Ссылка на предыдущие и альтернативные раздачи: http://cybertorrent.ru/tracker.php?nm=legend%20of%20korra
Семпл: http://sendfile.su/1037110-Качество: BDRip 1080p.
Формат: MKV
Видео: MPEG-4 AVC/H.264, ~12000 kb/s, 1920x1080 (16:9), 23,976 кадра/сек
Аудио 1: Русский DTS 5.1 48,0 Hz, 24 bit,1509 kbps
Аудио 2: Английский оригинал DTS 5.1 48,0 Hz, 24 bit,1509 kbps
Аудио 3: Английский комментарии DD 2.0 48,0 Hz, 16 bit, 224 kbps
Субтитры: английские, вшитые, софтсаб, отключаемые-

Список серий

Список серий:
01 - Добро пожаловать в город Республика
02 - Лист на ветру
03 - Откровения
04 - Голос в ночи
05 - Дух соперничества
06 - И победителем становится…
7 - Последствия
8 - Когда крайности сходятся
9 - Из прошлого
10 - Переломный момент
11- Скелеты в шкафу
12- Конец игры

Подробные технические данные

Общее
Уникальный идентификатор : 183540242390224242138880976067319302314 (0x8A14909C1A5CDD6BAA0CEEA44B5808AA)
Полное имя : D:\Кино\The Legend of Korra.S01.2012.1080p.BDRip.DTS.x264\Аватар Легенда о Корре.S01E01.Добро пожаловать в город Республика.2012.1080p.BDRip.DTS.x264.mkv
Формат : Matroska
Версия формата : Version 4 / Version 2
Размер файла : 2,56 Гбайт
Продолжительность : 24 м.
Общий поток : 15,2 Мбит/сек
Дата кодирования : UTC 2014-10-20 14:52:35
Программа кодирования : mkvmerge v6.9.1 ('Blue Panther') 64bit built on Apr 18 2014 18:23:38
Библиотека кодирования : libebml v1.3.0 + libmatroska v1.4.1
Видео
Идентификатор : 1
Формат : AVC
Формат/Информация : Advanced Video Codec
Профиль формата : High@L4.1
Параметр CABAC формата : Да
Параметр ReFrames формата : 4 кадра
Идентификатор кодека : V_MPEG4/ISO/AVC
Продолжительность : 24 м.
Битрейт : 12,0 Мбит/сек
Ширина : 1920 пикселей
Высота : 1080 пикселей
Соотношение сторон : 16:9
Режим частоты кадров : Постоянный
Частота кадров : 23,976 кадра/сек
Цветовое пространство : YUV
Субдискретизация насыщенности : 4:2:0
Битовая глубина : 8 бит
Тип развёртки : Прогрессивная
Бит/(Пиксели*Кадры) : 0.241
Размер потока : 1,97 Гбайт (77%)
Заголовок : x264
Библиотека кодирования : x264 core 133 r2334 a3ac64b
Настройки программы : cabac=1 / ref=4 / deblock=1:0:0 / analyse=0x3:0x113 / me=umh / subme=11 / psy=1 / psy_rd=1.00:0.00 / mixed_ref=1 / me_range=48 / chroma_me=1 / trellis=2 / 8x8dct=1 / cqm=0 / deadzone=21,11 / fast_pskip=0 / chroma_qp_offset=-2 / threads=6 / lookahead_threads=1 / sliced_threads=0 / nr=0 / decimate=0 / interlaced=0 / bluray_compat=0 / constrained_intra=0 / bframes=12 / b_pyramid=2 / b_adapt=2 / b_bias=0 / direct=3 / weightb=1 / open_gop=0 / weightp=2 / keyint=240 / keyint_min=23 / scenecut=40 / intra_refresh=0 / rc_lookahead=40 / rc=2pass / mbtree=0 / bitrate=12000 / ratetol=1.0 / qcomp=0.60 / qpmin=0 / qpmax=69 / qpstep=4 / cplxblur=20.0 / qblur=0.5 / vbv_maxrate=38000 / vbv_bufsize=30000 / nal_hrd=none / ip_ratio=1.40 / pb_ratio=1.30 / aq=1:1.20
Язык : English
Default : Да
Forced : Нет
Аудио #1
Идентификатор : 2
Формат : DTS
Формат/Информация : Digital Theater Systems
Режим : 16
Параметр Endianness формата : Big
Идентификатор кодека : A_DTS
Продолжительность : 24 м.
Вид битрейта : Постоянный
Битрейт : 1509 Кбит/сек
Каналы : 6 каналов
Расположение каналов : Front: L C R, Side: L R, LFE
Частота : 48,0 КГц
Битовая глубина : 24 бит
Метод сжатия : С потерями
Размер потока : 260 Мбайт (10%)
Заголовок : Flux-Team DTS 5.1
Язык : Russian
Default : Да
Forced : Нет
Аудио #2
Идентификатор : 3
Формат : DTS
Формат/Информация : Digital Theater Systems
Режим : 16
Параметр Endianness формата : Big
Идентификатор кодека : A_DTS
Продолжительность : 24 м.
Вид битрейта : Постоянный
Битрейт : 1509 Кбит/сек
Каналы : 6 каналов
Расположение каналов : Front: L C R, Side: L R, LFE
Частота : 48,0 КГц
Битовая глубина : 24 бит
Метод сжатия : С потерями
Размер потока : 260 Мбайт (10%)
Заголовок : DTS 5.1
Язык : English
Default : Нет
Forced : Нет
Аудио #3
Идентификатор : 4
Формат : AC-3
Формат/Информация : Audio Coding 3
Расширение режима : CM (complete main)
Параметр Endianness формата : Big
Идентификатор кодека : A_AC3
Продолжительность : 24 м.
Вид битрейта : Постоянный
Битрейт : 224 Кбит/сек
Каналы : 2 канала
Расположение каналов : Front: L R
Частота : 48,0 КГц
Битовая глубина : 16 бит
Метод сжатия : С потерями
Размер потока : 38,6 Мбайт (1%)
Заголовок : Commentary
Язык : English
Default : Нет
Forced : Нет
Текст
Идентификатор : 5
Формат : UTF-8
Идентификатор кодека : S_TEXT/UTF8
Идентификатор кодека/Информация : UTF-8 Plain Text
Заголовок : English
Язык : English
Default : Нет
Forced : Нет
Меню
00:00:00.000 : en:Chapter 01
00:07:13.933 : en:Chapter 02
00:16:37.038 : en:Chapter 03
00:23:28.616 : en:Chapter 04

Скриншоты

[www.cybertorrent.ru].t2036.torrent 
Торрент: Зарегистрирован [ 2018-02-16 08:44 ] · 38D77239C8A30BA725A28F0E6743E62AB9B128B5

Скачать .torrent

Скачать

156 KB

Статус: проверено
Скачан: 0 раз
Размер: 30,75 GB
Профиль [ЛС]
Показать сообщения:    

Текущее время: 15-Авг 10:30

Часовой пояс: UTC ± 0



Вы не можете начинать темы
Вы не можете отвечать на сообщения
Вы не можете редактировать свои сообщения
Вы не можете удалять свои сообщения
Вы не можете голосовать в опросах
Вы не можете прикреплять файлы к сообщениям
Вы можете скачивать файлы
Torrents24.ru открытый BitTorrent Torrents24.pl открытый BitTorrent CyberTorrent.ru открытый BitTorrent BtList.ru рейтинг BitTorrent трекеров Яндекс.Метрика