Статистика раздачи
Размер:  1,95 GB   |    Зарегистрирован:  4 месяца 4 дня   |    Скачан:  0 раз

Полного источника не было: Никогда

 
   
 
 

DR_KTO ®

Пол:
Не указан
Стаж:
4 месяца 5 дней
Сообщений:
97

Симпсоны / The Simpsons -Год выпуска: 2014
Страна: США
Студия: Twentieth Century Fox Film Corporation
Жанр: Приключения, комедия, сатира
Продолжительность: ~22 минуты (серия)
Перевод:
  • Профессиональный (многоголосый закадровый) студия "ZoneVision" по заказу ,
  • Любительский (многоголосый закадровый) Nice-Media,
  • Любительский (многоголосый закадровый) VO-Production
  • Любительский (многоголосый закадровый) OmskBird
-Режиссёр: Мэтт Гроунинг / Matt Groening-Роли озвучивали:
  • Оригинал: Дэн Кастелланета, Джули Кавнер, Нэнси Картрайт, Ярдли Смит, Гарри Ширер, Хэнк Азария, Памела Хейден, Тресс МакНилл, Карл Видерготт, Мэгги Росвэлл и др.
  • 2x2: Ирина Савина, Борис Быстров, Даниил Эльдаров
  • Nice-Media: Артемий Мирон (Mirohaha), Вероника Стригунова (Nika Kartman), Денис Коровин (Marvel), Алексей Филимончев (L0cDoG), Пётр "Гланц" Иващенко, Сергей Пономарёв, Екатерина Брайковская, Таисия Тришина (AniLibria), Михаил Литвин (Little), Света, Михаил Кшиштовский (Психодозер), Юрий Сосков, Алёна Кокорина (Nika Lenina), Михаил Козлов (Ancord), Денис Строев (Dexter), Надежда Серганова
  • OmskBird: Павел Ярощик, Ольга Федорова, Егор Шилов, Анна Рязанова, Полина Набиева и Владислав Филиппов
-Описание: Симпсоны живут в вымышленном городе Спрингфилд, со своим обществом и историей. Гомер - отец семейства, который дает плохие советы и работает инспектором безопасности на атомной электростанции; Мардж - любящая мать и жена, старается сохранить спокойствие в семье; Барт - 10 летний хулиган; Лиза - философский 8-летний ребенок; и Мэгги - младенец, который общается посредством соски.-РЕЛИЗ ОТ: V.SERIJ2013-

Спасибо

  • gbitlegion - за аудиодорожку VO-Production;
  • skyns61 - за аудиодорожку OmskBird;
  • L0cDoG - за аудиодорожку Nice-Media;
  • rassvet - за русские субтитры;
  • ALEKS KV - за запись и синхронизацию аудиодорожки 2x2
-Качество: WEB-DL 1080p |NTb|
Формат: MKV
Видео кодек: H.264
Аудио кодек: AC3
Видео: H.264, 1920x1080 (16:9), 23.976 fps, ~4396 kbps, 0.088 bit/pixel
Аудио:
  • русская |2x2|: AC3, 48 kHz, 2 ch, 192 kbps,
    русская |Nice-Media|: AC3, 48 kHz, 6 ch, 384 kbps,
    русская |VO-Production|: AC3, 48 kHz, 2 ch, 256 kbps,
    русская |OmskBird|: AC3, 48 kHz, 6 ch, 384 kbps,
  • английская: AC3, 48 kHz, 6 ch, 384 kbps
Субтитры: русские |Notabenoid|, английские
-Сэмпл\ Все раздачи мультсериала \ 16 сезон (BDRip 720p)- -

Список серий

26 сезон (2014 год):
01. Clown in the Dumps
02. The Wreck of the Relationship

Media Info

Код:General
Unique ID : 243942262875970219254552508420190897725 (0xB78592250624BF9D8F531B4B22FC063D)
Complete name : E:\Video\HD\Animated Series (HD)\The Simpsons Season 26 (WEB-DL 1080p)\01. Clown in the Dumps.mkv
Format : Matroska
Format version : Version 4 / Version 2
File size : 928 MiB
Duration : 21mn 12s
Overall bit rate : 6 118 Kbps
Movie name : The Simpsons Season 26 (WEB-DL | 1080p | v.serij2013)
Encoded date : UTC 2015-09-28 14:22:03
Writing application : mkvmerge v8.2.0 ('World of Adventure') 32bit
Writing library : libebml v1.3.1 + libmatroska v1.4.2
DURATION : 00:21:12.352000000
NUMBER_OF_FRAMES : 39761
NUMBER_OF_BYTES : 30536448
_STATISTICS_WRITING_APP : mkvmerge v8.2.0 ('World of Adventure') 32bit
_STATISTICS_WRITING_DATE_UTC : 2015-09-28 14:22:03
_STATISTICS_TAGS : BPS DURATION NUMBER_OF_FRAMES NUMBER_OF_BYTES
Video
ID : 1
Format : AVC
Format/Info : Advanced Video Codec
Format profile : High@L4.0
Format settings, CABAC : Yes
Format settings, ReFrames : 4 frames
Codec ID : V_MPEG4/ISO/AVC
Duration : 21mn 12s
Bit rate : 4 396 Kbps
Width : 1 920 pixels
Height : 1 080 pixels
Display aspect ratio : 16:9
Frame rate mode : Constant
Frame rate : 23.976 fps
Color space : YUV
Chroma subsampling : 4:2:0
Bit depth : 8 bits
Scan type : Progressive
Bits/(Pixel*Frame) : 0.088
Stream size : 667 MiB (72%)
Language : English
Default : Yes
Forced : No
Color primaries : BT.709
Transfer characteristics : BT.709
Matrix coefficients : BT.709
Audio #1
ID : 2
Format : AC-3
Format/Info : Audio Coding 3
Mode extension : CM (complete main)
Format settings, Endianness : Big
Codec ID : A_AC3
Duration : 21mn 12s
Bit rate mode : Constant
Bit rate : 192 Kbps
Channel(s) : 2 channels
Channel positions : Front: L R
Sampling rate : 48.0 KHz
Bit depth : 16 bits
Compression mode : Lossy
Stream size : 29.1 MiB (3%)
Title : MVO (2x2)
Language : Russian
Default : Yes
Forced : No
Audio #2
ID : 3
Format : AC-3
Format/Info : Audio Coding 3
Mode extension : CM (complete main)
Format settings, Endianness : Big
Codec ID : A_AC3
Duration : 21mn 12s
Bit rate mode : Constant
Bit rate : 384 Kbps
Channel(s) : 6 channels
Channel positions : Front: L C R, Side: L R, LFE
Sampling rate : 48.0 KHz
Bit depth : 16 bits
Compression mode : Lossy
Stream size : 58.2 MiB (6%)
Title : MVO (Nice-Media)
Language : Russian
Default : No
Forced : No
Audio #3
ID : 4
Format : AC-3
Format/Info : Audio Coding 3
Mode extension : CM (complete main)
Format settings, Endianness : Big
Codec ID : A_AC3
Duration : 21mn 12s
Bit rate mode : Constant
Bit rate : 256 Kbps
Channel(s) : 2 channels
Channel positions : Front: L R
Sampling rate : 48.0 KHz
Bit depth : 16 bits
Compression mode : Lossy
Stream size : 38.8 MiB (4%)
Title : MVO (VO-Production)
Language : Russian
Default : No
Forced : No
Audio #4
ID : 5
Format : AC-3
Format/Info : Audio Coding 3
Mode extension : CM (complete main)
Format settings, Endianness : Big
Codec ID : A_AC3
Duration : 21mn 12s
Bit rate mode : Constant
Bit rate : 384 Kbps
Channel(s) : 6 channels
Channel positions : Front: L C R, Side: L R, LFE
Sampling rate : 48.0 KHz
Bit depth : 16 bits
Compression mode : Lossy
Stream size : 58.2 MiB (6%)
Title : MVO (OmskBird)
Language : Russian
Default : No
Forced : No
Audio #5
ID : 6
Format : AC-3
Format/Info : Audio Coding 3
Mode extension : CM (complete main)
Format settings, Endianness : Big
Codec ID : A_AC3
Duration : 21mn 12s
Bit rate mode : Constant
Bit rate : 384 Kbps
Channel(s) : 6 channels
Channel positions : Front: L C R, Side: L R, LFE
Sampling rate : 48.0 KHz
Bit depth : 16 bits
Compression mode : Lossy
Stream size : 58.2 MiB (6%)
Title : Original
Language : English
Default : No
Forced : No
Text #1
ID : 7
Format : UTF-8
Codec ID : S_TEXT/UTF8
Codec ID/Info : UTF-8 Plain Text
Title : Notabenoid
Language : Russian
Default : No
Forced : No
Text #2
ID : 8
Format : UTF-8
Codec ID : S_TEXT/UTF8
Codec ID/Info : UTF-8 Plain Text
Title : Original
Language : English
Default : No
Forced : No
-
[www.cybertorrent.ru].t2029.torrent 
Торрент: Зарегистрирован [ 2018-02-16 08:44 ] · 6C5AD05B1ED93034CE39AD6F1B3E29B60A9DFFC5

Скачать .torrent

Скачать

20 KB

Статус: проверено
Скачан: 0 раз
Размер: 1,95 GB
Профиль [ЛС]
Показать сообщения:    

Текущее время: 20-Июн 13:04

Часовой пояс: UTC ± 0



Вы не можете начинать темы
Вы не можете отвечать на сообщения
Вы не можете редактировать свои сообщения
Вы не можете удалять свои сообщения
Вы не можете голосовать в опросах
Вы не можете прикреплять файлы к сообщениям
Вы можете скачивать файлы