BitTorrent клиенты



Нелла - отважная принцесса / Nella the Princess Knight / Сезон: 1 / Серии: 1-13 из 13 (Джез Холл/Jez Hall, Джили Долев/Gili Dolev) [2017, Ирландия, фэнтези, приключения, семейный, HDTVRip 720p] Dub + Original + Sub (Eng)

Ответить на тему
 
Автор Сообщение

Volga ®

Пол: Не указан

Стаж: 1 год

Сообщений: 761

Создавать темы 06-Фев-2018 00:56

[Цитировать]

Нелла - отважная принцесса / Nella the Princess Knight
Страна: Ирландия
Жанр: фэнтези, приключения, семейный
Продолжительность серии: 00:22:32
Год выпуска: 2017
Перевод: Профессиональный (дублированный)
Русские субтитры: нет
Режиссёр: Джез Холл/Jez Hall, Джили Долев/Gili Dolev
Описание: В эпицентре событий — история необычной восьмилетней принцессы по имени Нелла. Каждый раз, когда ее королевству угрожает опасность, добрая и благородная девочка становится отважной и решительной Принцессой-Рыцарем. Справиться с трудностями героине помогают ее товарищи: единорог Тринкет, преданный и изобретательный рыцарь сэр Гаррет и его верный конь Клод.
Доп. информация:
Видео и звук предоставил: duckling-by2
Раздача по сети [Torrent]: Romanych_777
Семпл: http://multi-up.com/1182356
Качество: HDTVRip 720p
Формат: MKV
Видео: AVC, 1280x720 (16:9), 23.976 fps, ~1 827 kbps, 0.083 bits/pixel
Аудио 1: Русский, 48.0 KHz, AC3, 2 ch, 192 kbps
Аудио 2: English, 48.0 KHz, AC3, 2 ch, 384 kbps
Субтитры: Английские

Список серий

1x01. Inside and Seek/Knighty-Knight Dragons
1x02. Sir Clod/Up All Knight
1x03. Princess Nella's Orc-hestra/The Blaine Game
1x04. New Kid in the Kingdom/Big Birthday Surprise
1x05. That's What Best Friends Are For/In Hot Watermelon
1x06. The Dragon Bully/Royaliscious Plumberry
1x07. The Sparkle Fest Showdown/The Sparkle Splash Friends Day
1x08. Sir Coach's Knightly Trading Card/A Knight's Tale
1x09. Three's a Crowd/More Than Meets the Eye
1x10. The Flutter Blunder/A Striking Surprise
1x11. No Gown, No Crown, No Party/Clod Monet
1x12. Royally Awesome Beach Day/Stop Dragon Me Around
1x13. The Share Faire/Hooves Got Talent?

Подробные технические данные

General
Unique ID : 193637062262717814751044675041586205680 (0x91AD244388D3AE5CA52881777C2E53F0)
Complete name : Y:\Раздача по сети [Torrent]\Nella the Princess Knight - Season 1\s01e01.mkv
Format : Matroska
Format version : Version 2
File size : 401 MiB
Duration : 22 min 32 s
Overall bit rate : 2 489 kb/s
Encoded date : UTC 2017-12-30 15:28:37
Writing application : mkvmerge v3.4.0 ('Rapunzel') сборка от May 15 2010 09:38:20
Writing library : libebml v0.8.0 + libmatroska v0.9.0
Video
ID : 1
Format : AVC
Format/Info : Advanced Video Codec
Format profile : High@L4.1
Format settings, CABAC : Yes
Format settings, RefFrames : 9 frames
Codec ID : V_MPEG4/ISO/AVC
Duration : 22 min 32 s
Bit rate : 1 863 kb/s
Width : 1 280 pixels
Height : 720 pixels
Display aspect ratio : 16:9
Frame rate mode : Constant
Frame rate : 23.976 (24000/1001) FPS
Color space : YUV
Chroma subsampling : 4:2:0
Bit depth : 8 bits
Scan type : Progressive
Bits/(Pixel*Frame) : 0.084
Stream size : 300 MiB (75%)
Writing library : x264 core 150 r2829 d1fe6fd
Encoding settings : cabac=1 / ref=9 / deblock=1:1:1 / analyse=0x3:0x113 / me=hex / subme=8 / psy=1 / psy_rd=0.40:0.00 / mixed_ref=1 / me_range=16 / chroma_me=1 / trellis=2 / 8x8dct=1 / cqm=0 / deadzone=21,11 / fast_pskip=1 / chroma_qp_offset=-2 / threads=12 / lookahead_threads=2 / sliced_threads=0 / nr=0 / decimate=1 / interlaced=0 / bluray_compat=0 / constrained_intra=0 / bframes=5 / b_pyramid=2 / b_adapt=1 / b_bias=0 / direct=3 / weightb=1 / open_gop=0 / weightp=2 / keyint=250 / keyint_min=23 / scenecut=40 / intra_refresh=0 / rc_lookahead=50 / rc=crf / mbtree=1 / crf=18.0 / qcomp=0.60 / qpmin=0 / qpmax=69 / qpstep=4 / ip_ratio=1.40 / aq=1:0.60
Default : No
Forced : No
Statistics Tags Issue : mkvmerge v9.7.1 ('Pandemonium') 64bit 2017-06-27 03:12:14 / mkvmerge v3.4.0 ('Rapunzel') сборка от May 15 2010 09:38:20 2017-12-30 15:28:37
FromStats_BitRate : 1910667
FromStats_Duration : 00:22:32.393000000
FromStats_FrameCount : 32425
FromStats_StreamSize : 322996641
Audio #1
ID : 2
Format : AC-3
Format/Info : Audio Coding 3
Format settings, Endianness : Big
Codec ID : A_AC3
Duration : 22 min 32 s
Bit rate mode : Constant
Bit rate : 192 kb/s
Channel(s) : 2 channels
Channel positions : Front: L R
Sampling rate : 48.0 kHz
Frame rate : 31.250 FPS (1536 SPF)
Bit depth : 16 bits
Compression mode : Lossy
Stream size : 31.0 MiB (8%)
Language : Russian
Service kind : Complete Main
Default : Yes
Forced : No
Audio #2
ID : 3
Format : AC-3
Format/Info : Audio Coding 3
Format settings, Endianness : Big
Codec ID : A_AC3
Duration : 22 min 32 s
Bit rate mode : Constant
Bit rate : 384 kb/s
Channel(s) : 2 channels
Channel positions : Front: L R
Sampling rate : 48.0 kHz
Frame rate : 31.250 FPS (1536 SPF)
Bit depth : 16 bits
Compression mode : Lossy
Stream size : 61.9 MiB (15%)
Language : English
Service kind : Complete Main
Default : No
Forced : No
Statistics Tags Issue : mkvmerge v9.7.1 ('Pandemonium') 64bit 2017-06-27 03:12:14 / mkvmerge v3.4.0 ('Rapunzel') сборка от May 15 2010 09:38:20 2017-12-30 15:28:37
FromStats_BitRate : 384000
FromStats_Duration : 00:22:32.384000000
FromStats_FrameCount : 42262
FromStats_StreamSize : 64914432
Text
ID : 4
Format : UTF-8
Codec ID : S_TEXT/UTF8
Codec ID/Info : UTF-8 Plain Text
Language : English
Default : No
Forced : No
Statistics Tags Issue : mkvmerge v9.7.1 ('Pandemonium') 64bit 2017-06-27 03:12:14 / mkvmerge v3.4.0 ('Rapunzel') сборка от May 15 2010 09:38:20 2017-12-30 15:28:37
FromStats_BitRate : 279
FromStats_Duration : 00:21:56.313000000
FromStats_FrameCount : 568
FromStats_StreamSize : 45910

Скриншоты

Предыдущие и альтернативные раздачи
[Профиль] [ЛС]
Показать сообщения:    
Ответить на тему

Текущее время: 21-Фев 23:47

Часовой пояс: UTC + 3



Вы не можете начинать темы
Вы не можете отвечать на сообщения
Вы не можете редактировать свои сообщения
Вы не можете удалять свои сообщения
Вы не можете голосовать в опросах
Вы не можете прикреплять файлы к сообщениям
Вы можете скачивать файлы