Статистика раздачи
Размер:  7,33 GB   |    Зарегистрирован:  4 месяца 4 дня   |    Скачан:  0 раз

Полного источника не было: Никогда

 
   
 
 

tvoja_zaja ®

Пол:
Не указан
Стаж:
4 месяца 5 дней
Сообщений:
114

Том и Джерри. Детское шоу / Том и Джерри. Детские годы / Том и Джерри в детстве / Tom & Jerry Kids Show
Страна: США
Жанр: Анимация
Продолжительность: Приблизительно 6-8 минут одна серия
Год выпуска: 1990-1991
Перевод: Авторский (одноголосый закадровый) Сергей Кузнецов
Русские субтитры: нет
Режиссёр: Рэй Паттерсон, Роберт Альварез, Дон Ласк
Роли озвучивали: Чарльз Адлер
Пэт Фрэли
Тереза Ганзел
Ричард Готье
Дон Мессик
Фрэнк Уэлкер
Патрик Л. Зиммерман
Брайан Каммингс
Соррел Бук
С. Скотт Баллок
Описание: Мультсериал, рассказывающий о приключениях Тома и Джерри в детстве. Премьера состоялось на канале FOX 8 сентября 1990 года, и продолжающиеся до 2 октября 1993 года. Позднее мультфильм транслировался многими каналами по всему миру и много раз переиздавался на VHS и DVD. Мультсериал «Том и Джерри в детстве» несколько подобен классическому «Тому и Джерри», но уровень насилия здесь показан в менее сильной форме. Кроме того, они не часто используют различные инструменты или оружие для нападения друг на друга, а вместо того просто преследуют друг друга. Как обычно, котёнок Том постоянно пытается поймать мышонка Джерри, часто вызывая много неудачных моментов. Также в сериале показаны приключения Спайка и Тайка, а также противостояние пса Друпи и его сына Дриппла со злющим волком МакВульфом. Также после выхода был показан на Fox Kids спин-офф мультсериала «Друпи-суперсыщик».
Список серий:
Том и Джерри. Детское шоу. 1990 (AVO, Сергей Кузнецов)
04. Отсутствие воспитания.mpg
05. Хищники.mpg
06. Изобретательный мышонок.mpg
08. Средневековый мышонок.mpg
09. Друппио и Джульета.mpg
12. Космические щенки.mpg
Том и Джерри. Детское шоу. 1991 (AVO, Сергей Кузнецов)
01. Цирковые трюки.mpg
02. Состязание.mpg
03. По голове не бить.mpg
08. Закулисная борьба.mpg
10. Кто ты, киска.mpg
12. Пиратский кот.mpg
13. Родительский день.mpg
15. Молниеносный.mpg
16. Амадей Маус.mpg
17. Мускулистый и Друппи на пляже.mpg
20. Друппи и привидение.mpg
22. Поймай мышонка.mpg
24. Сюрприз ко дню рождения.mpg
25. Клеокатра.mpg
26. Мистер Маквольфенштейн.mpg
31. Маленький придумщик.mpg
32. Крыса, которая любит рэп.mpg
34. Калифорнийские гонки.mpg
Доп. информация: Оцифровка VHS (личный архив) и получение VHSRip alenavova
Эксклюзив для rutracker.org. При размещении данного релиза на других сайтах ссылка на автора alenavova обязательна.
Релиз
Ссылка на предыдущие и альтернативные раздачи: http://cybertorrent.ru/search.php?nm=Tom+%26+Jerry+Kids+Show
Качество: VHSRip
Формат: MPG
Видео: MPEG2 Video 720x576 (4:3) 25fps
Аудио: MPEG Audio 48000Hz stereo 192kbps
Субтитры: отсутствуют

Подробные технические данные

Том и Джерри. Детское шоу. 1991 (AVO, Сергей Кузнецов)\01. Цирковые трюки.mpg
Format : MPEG-PS
File size : 353 MiB
Duration : 7mn 49s
Overall bit rate mode : Variable
Overall bit rate : 6 305 Kbps
Writing library : (c) 1998-2009 Womble Multimedia, Inc. / MPEG Video Wizard (03/2009) / Dec 9 2009
Video
ID : 224 (0xE0)
Format : MPEG Video
Format version : Version 2
Format profile : Main@Main
Format settings, BVOP : Yes
Format settings, Matrix : Custom
Format settings, GOP : M=3, N=15
Duration : 7mn 49s
Bit rate mode : Variable
Bit rate : 6 000 Kbps
Width : 720 pixels
Height : 576 pixels
Display aspect ratio : 4:3
Frame rate : 25.000 fps
Standard : PAL
Color space : YUV
Chroma subsampling : 4:2:0
Bit depth : 8 bits
Scan type : Progressive
Compression mode : Lossy
Bits/(Pixel*Frame) : 0.579
Time code of first frame : 00:00:00:00
Time code source : Group of pictures header
Stream size : 335 MiB (95%)
Writing library : (c) 1998-2009 Womble Multimedia, Inc. / MPEG Video Wizard (03/2009) / Dec 9 2009
Audio
ID : 192 (0xC0)
Format : MPEG Audio
Format version : Version 1
Format profile : Layer 2
Duration : 7mn 49s
Bit rate mode : Constant
Bit rate : 192 Kbps
Channel(s) : 2 channels
Sampling rate : 48.0 KHz
Compression mode : Lossy
Delay relative to video : -80ms
Stream size : 10.7 MiB (3%)
Menu

Скриншоты




[www.cybertorrent.ru].t2027.torrent 
Торрент: Зарегистрирован [ 2018-02-16 08:44 ] · 11060F3FDF81A62596BBAE4782CE80D018CA6EC9

Скачать .torrent

Скачать

41 KB

Статус: проверено
Скачан: 0 раз
Размер: 7,33 GB
Профиль [ЛС]
Показать сообщения:    

Текущее время: 20-Июн 12:58

Часовой пояс: UTC ± 0



Вы не можете начинать темы
Вы не можете отвечать на сообщения
Вы не можете редактировать свои сообщения
Вы не можете удалять свои сообщения
Вы не можете голосовать в опросах
Вы не можете прикреплять файлы к сообщениям
Вы можете скачивать файлы