Статистика раздачи
Размер:  1,45 GB   |    Зарегистрирован:  6 месяцев   |    Скачан:  0 раз

Полного источника не было: Никогда

Личеров:  1  [  0 KB/s  ]  
 
   
 
 

kex ®

Пол:
Не указан
Стаж:
6 месяцев 1 день
Сообщений:
651

С наступающим Новым 2018 Годом!
-Долина папоротников: Последний тропический лес / FernGully: The Last Rainforest
Год выпуска: 1992
Страна: Австралия, США
Жанр: мультфильм, приключения, фэнтези, семейный
Продолжительность: 01:15:52
Перевод: Профессиональный (многоголосый закадровый) - Новый канал
Перевод 2: Профессиональный (двухголосый закадровый) - Лазер Видео
Субтитры: нет
Оригинальная аудиодорожка: английский
Режиссер: Билл Кройер / Bill Croyer
В ролях: Тим Карри (Hexxus), Саманта Мэтис (Crysta), Кристиан Слэйтер (Pips), Джонатан Уорд (Zak), Робин Уильямс (Batty Koda), Грейс Забриски (Magi Lune), Джеффри Блейк (Ralph), Роберт Пасторелли (Tony), Чич Марин (Stump), Томми Чонг (Root)-Мировая премьера: 10 апреля 1992-Описание: Хексус — это злой дух. Его задача — причинять боль и страдания. Он появился из раскаленного ядра Земли и принялся уничтожать сказочно красивый тропический лес, населенный забавными мистическими существами. Только объединившись и обратив свои мольбы к магическим силам природы, жителям леса удалось заточить Хексуса в одно из деревьев. Но скоро зверушки опять сталкиваются со смертельной опасностью, на сей раз исходящей со стороны людей, занимающихся вырубкой лесов. Своими мощными бульдозерами люди сносят подкорень вековые деревья, не подозревая о том, что в одном из них своего часа дожидается мощнейшая безжалостная сила, несущая смерть всему живому. Но наши маленькие герои проявляют чудеса смекалки и с юмором расправляются со всеми своими обидчиками.-Огромная благодарность:
Flynn82 - видеоряд с Рутора
Home Video - личная запись русского перевода с украинского Нового канала через видеомагнитофон и оцифровка звука с видеокассеты.
ALEKS KV - владелец своей лицензионной видеокассеты от видео-компании Премьер Видео Фильм.
RoxMarty - оцифровка звука с видеокассеты.
JUSTKANT - синхронизация всех переводов.-ДАННЫЕ ПЕРЕВОДЫ НА ТРЕКЕРЕ ПОЯВЛЯЮТСЯ ВПЕРВЫЕ!.-
Рейтинг

MPAA: G - Нет возрастных ограничений.-Качество видео: BDRip
Формат видео: AVI -> //Сэмпл//
Видео: DivX, 704x384 (1,85:1), 23.976 fps, 1889 kbps avg
Аудио:
1 - 48 khz, AC3 Dolby Digital, 2/0 (L,R) ch, ~192 kbps [Новый канал] VHSRip-ТВ
2 - 48 khz, AC3 Dolby Digital, 2/0 (L,R) ch, ~192 kbps [Лазер Видео] VHSRip
3 - 48 khz, AC3 Dolby Digital, 5/1 ch, ~384 kbps [Английский]-ОБНОВЛЕНИЕ РЕЛИЗА ОТ 20.12.2017. Причины:
Добавлен в раздачу новый раритетный перевод с VHS от Лазер Видео, в связи с этим был заменён видеоряд.
Просьба перескачать торрент!

MediaInfo

General
Complete name : D:\Долина папоротников. Последний тропический лес (Новый канал + Лазер Видео + Оригинал).avi
Format : AVI
Format/Info : Audio Video Interleave
File size : 1.45 GiB
Duration : 1 h 15 min
Overall bit rate : 2 740 kb/s
Movie name : Долина папоротников: Последний тропический лес / FernGully: The Last Rainforest (Новый канал + Лазер Видео + Оригинал)
Director : JUSTKANT
Writing application : VirtualDubMod 1.5.10.3 (build 2550/release)
Copyright : Качество звука: Новый канал - VHSRipТВ (Home Video) и Лазер Видео - VHSRip (ALEKS KV & RoxMarty)
Video
ID : 0
Format : MPEG-4 Visual
Format profile : Advanced Simple@L5
Format settings : BVOP1 / Custom Matrix
Format settings, BVOP : 1
Format settings, QPel : No
Format settings, GMC : No warppoints
Format settings, Matrix : Custom
Codec ID : XVID
Codec ID/Hint : XviD
Duration : 1 h 15 min
Bit rate : 1 889 kb/s
Width : 704 pixels
Height : 384 pixels
Display aspect ratio : 1.85:1
Frame rate : 23.976 (24000/1001) FPS
Color space : YUV
Chroma subsampling : 4:2:0
Bit depth : 8 bits
Scan type : Progressive
Compression mode : Lossy
Bits/(Pixel*Frame) : 0.291
Stream size : 1.00 GiB (69%)
Writing library : XviD 64
Audio #1
ID : 1
Format : AC-3
Format/Info : Audio Coding 3
Codec ID : 2000
Duration : 1 h 15 min
Bit rate mode : Constant
Bit rate : 192 kb/s
Channel(s) : 2 channels
Channel positions : Front: L R
Sampling rate : 48.0 kHz
Frame rate : 31.250 FPS (1536 SPF)
Bit depth : 16 bits
Compression mode : Lossy
Stream size : 104 MiB (7%)
Alignment : Split accross interleaves
Interleave, duration : 42 ms (1.00 video frame)
Interleave, preload duratio : 500 ms
Title : НОВЫЙ КАНАЛ: Русский перевод
Service kind : Complete Main
Audio #2
ID : 2
Format : AC-3
Format/Info : Audio Coding 3
Codec ID : 2000
Duration : 1 h 15 min
Bit rate mode : Constant
Bit rate : 192 kb/s
Channel(s) : 2 channels
Channel positions : Front: L R
Sampling rate : 48.0 kHz
Frame rate : 31.250 FPS (1536 SPF)
Bit depth : 16 bits
Compression mode : Lossy
Stream size : 104 MiB (7%)
Alignment : Split accross interleaves
Interleave, duration : 42 ms (1.00 video frame)
Interleave, preload duratio : 500 ms
Title : ЛАЗЕР ВИДЕО: Александр Новиков и Мария Овчинникова
Service kind : Complete Main
Audio #3
ID : 3
Format : AC-3
Format/Info : Audio Coding 3
Codec ID : 2000
Duration : 1 h 15 min
Bit rate mode : Constant
Bit rate : 448 kb/s
Channel(s) : 6 channels
Channel positions : Front: L C R, Side: L R, LFE
Sampling rate : 48.0 kHz
Frame rate : 31.250 FPS (1536 SPF)
Bit depth : 16 bits
Compression mode : Lossy
Stream size : 243 MiB (16%)
Alignment : Split accross interleaves
Interleave, duration : 42 ms (1.00 video frame)
Interleave, preload duratio : 500 ms
Title : Оригинальный (английский)
Service kind : Complete Main

Скриншот c названием фильма

Скриншоты

[www.cybertorrent.ru].t2021.torrent 
Торрент: Зарегистрирован [ 2018-02-16 08:44 ] · 4BE7C5C219E1A65117B037DFC0B0FFC7C9AC12B9

Скачать .torrent

Скачать

15 KB

Статус: проверено
Скачан: 0 раз
Размер: 1,45 GB
Профиль [ЛС]
Показать сообщения:    

Текущее время: 16-Авг 13:30

Часовой пояс: UTC ± 0



Вы не можете начинать темы
Вы не можете отвечать на сообщения
Вы не можете редактировать свои сообщения
Вы не можете удалять свои сообщения
Вы не можете голосовать в опросах
Вы не можете прикреплять файлы к сообщениям
Вы можете скачивать файлы
Torrents24.ru открытый BitTorrent Torrents24.pl открытый BitTorrent CyberTorrent.ru открытый BitTorrent BtList.ru рейтинг BitTorrent трекеров Яндекс.Метрика