Статистика раздачи
Размер:  6,87 GB   |    Зарегистрирован:  4 месяца 7 дней   |    Скачан:  0 раз

Полного источника не было: Никогда

Личеров:  1  [  0 KB/s  ]  
 
   
 
 

krek ®

Пол:
Не указан
Стаж:
4 месяца 8 дней
Сообщений:
46

Гандам: Реконгиста G / Gundam: G no Reconguista / Gundam: Reconguista in G
Страна: Япония
Год выпуска: 2014 г.
Жанр: Меха, Фантастика, Драма
Тип: TV
Продолжительность: XXX эп., ~25 мин. серия
Режиссер: Йосиюки Томино
Студия: Sunrise
Описание: Вселенский век с его войнами и завоеваниями уходит в прошлое. Человечество приветствует новую эпоху мира и процветания, Век Объединения.
Год 1014 R.C. Столичная Башня соединяет Землю и космос и имеет важное значение, ввиду доставки на Землю фотонных батарей. Юный кадет Столичной Гвардии, Беллри Зенам, находится на своем первом практическом занятии в открытом космосе, когда его атакует таинственный и чрезвычайно мощный мобильный доспех, Джи-Сэлф. Его пилот, Аида Рейнхантон, предполагала, что она единственная способна пилотировать Джи-Сэлф, но неожиданно доспех принимает Беллри Зенама за пилота.
Доп. информация: Йосиюки Томино, создатель франшизы, спустя 6 лет (а если считать только оригинальные произведения, то все 14) снова вернулся на пост режиссера.
Качество: HDTVRip 720p
Тип релиза: Без хардсаба
Формат видео: MP4
Релиз/Автор рипа: Zero-raws
Видео: AVC, 1280x720 (16/9), ~2611 кбит/с, 23.976 fps, 8 bit
Аудио: AAC, ~192 кбит/с, 48 KHz, 2 ch stereo Язык Японский
Субтитры: ASS (внешние) Язык субтитров русский ; Перевод: Anaheim Subs

Подробные тех. данные

Format : MPEG-4
Format profile : Base Media
Codec ID : isom
File size : 910 MiB
Duration : 45mn 23s
Overall bit rate mode : Variable
Overall bit rate : 2 804 Kbps
Encoded date : UTC 2014-10-04 08:19:55
Tagged date : UTC 2014-10-04 08:19:55
Video
ID : 1
Format : AVC
Format/Info : Advanced Video Codec
Format profile : High@L3.1
Format settings, CABAC : Yes
Format settings, ReFrames : 4 frames
Codec ID : avc1
Codec ID/Info : Advanced Video Coding
Duration : 45mn 23s
Bit rate : 2 611 Kbps
Maximum bit rate : 16.8 Mbps
Width : 1 280 pixels
Height : 720 pixels
Display aspect ratio : 16:9
Frame rate mode : Constant
Frame rate : 23.976 fps
Color space : YUV
Chroma subsampling : 4:2:0
Bit depth : 8 bits
Scan type : Progressive
Bits/(Pixel*Frame) : 0.118
Stream size : 848 MiB (93%)
Writing library : x264 core 133 r2334 a3ac64b
Encoding settings : cabac=1 / ref=3 / deblock=1:0:0 / analyse=0x3:0x113 / me=hex / subme=7 / psy=1 / psy_rd=1.00:0.00 / mixed_ref=1 / me_range=16 / chroma_me=1 / trellis=1 / 8x8dct=1 / cqm=0 / deadzone=21,11 / fast_pskip=1 / chroma_qp_offset=-2 / threads=12 / lookahead_threads=2 / sliced_threads=0 / nr=0 / decimate=1 / interlaced=0 / bluray_compat=0 / constrained_intra=0 / bframes=3 / b_pyramid=2 / b_adapt=1 / b_bias=0 / direct=1 / weightb=1 / open_gop=0 / weightp=2 / keyint=250 / keyint_min=23 / scenecut=40 / intra_refresh=0 / rc_lookahead=40 / rc=crf / mbtree=1 / crf=19.5 / qcomp=0.60 / qpmin=0 / qpmax=69 / qpstep=4 / ip_ratio=1.40 / aq=1:1.00
Encoded date : UTC 2014-10-04 07:30:56
Tagged date : UTC 2014-10-04 08:19:57
Audio
ID : 2
Format : AAC
Format/Info : Advanced Audio Codec
Format profile : LC
Codec ID : 40
Duration : 45mn 23s
Bit rate mode : Variable
Bit rate : 192 Kbps
Maximum bit rate : 197 Kbps
Channel(s) : 2 channels
Channel positions : Front: L R
Sampling rate : 48.0 KHz
Compression mode : Lossy
Delay relative to video : 83ms
Stream size : 61.2 MiB (7%)
Title : aac#trackID=1:lang=Japanese@GPAC0.5.1-DEV-rev4708
Language : Japanese
Encoded date : UTC 2014-10-04 08:19:56
Tagged date : UTC 2014-10-04 08:19:57

Список эпизодов

01. Таинственный мобильный доспех.
02. Джи-Сэлф, запуск!
03. Давление Монтеро.
04. Буйные пляски Кэтсита.
05. Противник - Столичная Армия.
06. Делленсен - грозный враг.
07. Нападение отряда Маски.
08. Мама, Папа, Маска.
09. Мегафауна летит на юг.
10. Побег с территории.
11. Начинаем войну в космосе!
12. Оккупация Столичной Башни.
13. Они пришли с Луны
14. Космос, сражения мобильных доспехов
15. Лети! К Товасанге.

Скриншоты

[www.cybertorrent.ru].t2013.torrent 
Торрент: Зарегистрирован [ 2018-02-16 08:44 ] · BC87E85D0B8DAE887AE6FA61B05C3C7723CB8FD7

Скачать .torrent

Скачать

38 KB

Статус: проверено
Скачан: 0 раз
Размер: 6,87 GB
Профиль [ЛС]
Показать сообщения:    

Текущее время: 23-Июн 18:03

Часовой пояс: UTC ± 0



Вы не можете начинать темы
Вы не можете отвечать на сообщения
Вы не можете редактировать свои сообщения
Вы не можете удалять свои сообщения
Вы не можете голосовать в опросах
Вы не можете прикреплять файлы к сообщениям
Вы можете скачивать файлы