Статистика раздачи
Размер:  12,14 GB   |    Зарегистрирован:  8 месяцев 4 дня   |    Скачан:  0 раз

Полного источника не было: Никогда

 
   
 
 

martin ®

Пол:
Не указан
Стаж:
8 месяцев 5 дней
Сообщений:
47

Аватар: Легенда о Корре / The Legend of Korra- Страна: США
Жанр: мультсериал, приключения, семейный, фэнтези
Продолжительность: ~ 22 минуты
Год выпуска: 2014-Перевод : Любительский (многоголосый закадровый) Flux-Team
Субтитры: английские-
-Перевод: HelenZubr в редакции AndreyP
Текст читали: Natemily, Die_Otter, Tomas, Inimyo и Андрей Авдеев
Режиссёр:
Michael Dante DiMartino / Майкл Данте ДиМартино
Bryan Konietzko / Брайан Кониецко
Роли озвучивали: Джанет Вэрни, Ди Брэдли Бейкер, Джефф Беннетт, Дэвид Фаустино, П.Дж. Бирн, Дж.К. Симмонс, Сейшелл Гэбриел, Кирнан Шипка, Минди Стерлинг, Логан Уэллс-Описание: Добро пожаловать в Республиканский город! Город надежд, мечтаний и Зарослей Духов! Здесь найдётся что-нибудь интересное для каждого! Посетите Остров Храма Воздуха, центр для всех магов воздуха, путешествующих по миру и помогающих людям. Или прогуляйтесь по красивейшему Парку Аватару Корры, названным в честь сами знаете кого! Мы очень скучали по ней все прошедшие три года и ждём-не дождемся ее прибытия домой! Поправляйся скорее, Корра! И, конечно же, вам захочется увидеть нашу главную достопримечательность - Заросли Духов! Здесь люди и духи живут вместе в полной гармонии! Например, как этот старый торговец и его новые друзья! И конечно же, этот город абсолютно безопасен! Приезжайте, чтобы стать частью всего происходящего в республиканском городе!-Качество: WEB-DL 1080p
Формат: MKV
Видео: MPEG-4 AVC/H.264, ~5023 kb/s, 1916x1076 (16:9), 23,976 кадра/сек
Аудио 1: AC-3 6 ch 384 kb/s, 48,0 КГц [Русский]
Оригинальная аудиодорожка 2: AC-3 6 ch 384 kb/s, 48,0 КГц [Английский]
Субтитры: английские, вшитые, софтсаб, отключаемые-Сэмпл | Ссылка на предыдущие и альтернативные раздачи-

Список серий

Список серий:
Глава 1: После стольких лет
02. Одинокая Корра
03. Коронация
04. Призвание
05. Враг у ворот
06. Битва за Заофу
07. Воссоединение
08. Воспоминания
09. По ту сторону зарослей
10. Операция Бейфонг
11. Гамбит Кувиры
12. День Колосса
13. Последняя битва

Подробные технические данные

Общее
Уникальный идентификатор : 210164789118291256683603198885598588989 (0x9E1C441CA18A0BF8B50A540F33CFF03D)
Полное имя : Z:\Мои торренты\Аватар легенда о Корре.S04.1080p.WEB-DL.DD5.1.H.264\Аватар легенда о Корре.S04E01.После стольких лет.1080p.WEB-DL.DD5.1.H.264
Формат : Matroska
Версия формата : Version 4 / Version 2
Размер файла : 967 Мбайт
Продолжительность : 22 м.
Общий поток : 5909 Кбит/сек
Дата кодирования : UTC 2014-10-04 19:49:20
Программа кодирования : mkvmerge v6.9.1 ('Blue Panther') 64bit built on Apr 18 2014 18:23:38
Библиотека кодирования : libebml v1.3.0 + libmatroska v1.4.1
Attachment : Yes
Видео
Идентификатор : 1
Формат : AVC
Формат/Информация : Advanced Video Codec
Профиль формата : High@L4.0
Параметр CABAC формата : Да
Параметр ReFrames формата : 4 кадра
Идентификатор кодека : V_MPEG4/ISO/AVC
Продолжительность : 22 м.
Битрейт : 5023 Кбит/сек
Ширина : 1916 пикселей
Высота : 1076 пикселей
Соотношение сторон : 16:9
Режим частоты кадров : Постоянный
Частота кадров : 23,976 кадра/сек
Цветовое пространство : YUV
Субдискретизация насыщенности : 4:2:0
Битовая глубина : 8 бит
Тип развёртки : Прогрессивная
Бит/(Пиксели*Кадры) : 0.102
Размер потока : 822 Мбайт (85%)
Заголовок : H.264
Default : Да
Forced : Нет
Основные цвета : BT.709
Характеристики трансфера : BT.709
Коэффициенты матрицы : BT.709
Аудио #1
Идентификатор : 2
Формат : AC-3
Формат/Информация : Audio Coding 3
Расширение режима : CM (complete main)
Параметр Endianness формата : Big
Идентификатор кодека : A_AC3
Продолжительность : 22 м.
Вид битрейта : Постоянный
Битрейт : 384 Кбит/сек
Каналы : 6 каналов
Расположение каналов : Front: L C R, Side: L R, LFE
Частота : 48,0 КГц
Битовая глубина : 16 бит
Метод сжатия : С потерями
Размер потока : 62,8 Мбайт (6%)
Заголовок : Flux-Team DD5.1 384kb/s
Язык : Russian
Default : Да
Forced : Нет
Аудио #2
Идентификатор : 3
Формат : AC-3
Формат/Информация : Audio Coding 3
Расширение режима : CM (complete main)
Параметр Endianness формата : Big
Идентификатор кодека : A_AC3
Продолжительность : 22 м.
Вид битрейта : Постоянный
Битрейт : 384 Кбит/сек
Каналы : 6 каналов
Расположение каналов : Front: L C R, Side: L R, LFE
Частота : 48,0 КГц
Битовая глубина : 16 бит
Метод сжатия : С потерями
Размер потока : 62,8 Мбайт (6%)
Заголовок : DD5.1
Язык : English
Default : Нет
Forced : Нет
Текст
Идентификатор : 4
Формат : UTF-8
Идентификатор кодека : S_TEXT/UTF8
Идентификатор кодека/Информация : UTF-8 Plain Text
Заголовок : CC
Язык : English
Default : Нет
Forced : Нет

Скриншоты

[www.cybertorrent.ru].t2012.torrent 
Торрент: Зарегистрирован [ 2018-02-16 08:44 ] · B905F2F6BD0585368670D3AA79C0A30BF1710F3C

Скачать .torrent

Скачать

33 KB

Статус: проверено
Скачан: 0 раз
Размер: 12,14 GB
Профиль [ЛС]
Показать сообщения:    

Текущее время: 20-Окт 22:16

Часовой пояс: UTC ± 0



Вы не можете начинать темы
Вы не можете отвечать на сообщения
Вы не можете редактировать свои сообщения
Вы не можете удалять свои сообщения
Вы не можете голосовать в опросах
Вы не можете прикреплять файлы к сообщениям
Вы можете скачивать файлы
Torrents24.ru открытый BitTorrent Torrents24.pl открытый BitTorrent CyberTorrent.ru открытый BitTorrent BtList.ru рейтинг BitTorrent трекеров Яндекс.Метрика