BitTorrent клиенты



Про носуху (Александра Слепчук) [2015, Россия, мультфильм, WEBRip-AVC]

Ответить на тему
 
Автор Сообщение

Alex ®

Пол: Не указан

Стаж: 1 год

Сообщений: 855

Создавать темы 06-Фев-2018 00:56

[Цитировать]

Про носуху
Страна: Россия
Жанр: мультфильм
Продолжительность: 00:05:59
Год выпуска: 2015
Режиссёр: Александра Слепчук
Описание: Носухи (лат. Nasua) — род небольших млекопитающих семейства енотовых, распространённых на обоих американских континентах.
Шуточный мультфильм рассказывает про небольшую группу этих зверушек, живущих по армейским порядкам. Один из них считается недотёпой, потому что обладает слишком большим носом, который мешает ему быть как все. Но именно этот нос поможет ему вовремя почуять опасность...
Доп. информация: Приз зрительских симпатий - Фестиваль "Новый горизонт" (2016)
Приз молодежного жюри (Категория 6+) - Фестиваль "Золотая рыбка" (2016)
Специальный приз - Фестиваль "Свет миру" (2017)
Лучший международный детский фильм - Фестиваль "Primanima" (2017)
Качество: WEBRip-AVC
Формат: MP4
Видео: 1414 kbps, 1280х720 (16:9), 25.000 fps, AVC (High@L3.1)
Аудио: 126 kbps, 44.1 kHz, 2 channels, AAC (LC)
Субтитры: отсутствуют

Подробные технические данные

General
Complete name : Про носуху (2015).mp4
Format : MPEG-4
Format profile : Base Media / Version 2
Codec ID : mp42
File size : 66.2 MiB
Duration : 5mn 59s
Overall bit rate mode : Variable
Overall bit rate : 1 543 Kbps
Encoded date : UTC 2017-01-26 10:17:10
Tagged date : UTC 2017-01-26 10:17:10
gsst : 0
gstd : 360048
Video
ID : 1
Format : AVC
Format/Info : Advanced Video Codec
Format profile : Main@L3.1
Format settings, CABAC : Yes
Format settings, ReFrames : 3 frames
Codec ID : avc1
Codec ID/Info : Advanced Video Coding
Duration : 5mn 59s
Bit rate : 1 414 Kbps
Width : 1 280 pixels
Height : 720 pixels
Display aspect ratio : 16:9
Frame rate mode : Constant
Frame rate : 25.000 fps
Color space : YUV
Chroma subsampling : 4:2:0
Bit depth : 8 bits
Scan type : Progressive
Bits/(Pixel*Frame) : 0.061
Stream size : 60.7 MiB (92%)
Title : ISO Media file produced by Google Inc.
Encoded date : UTC 2017-01-26 10:17:10
Tagged date : UTC 2017-01-26 10:17:10
Color primaries : BT.709
Transfer characteristics : BT.709
Matrix coefficients : BT.709
Audio
ID : 2
Format : AAC
Format/Info : Advanced Audio Codec
Format profile : LC
Codec ID : 40
Duration : 5mn 59s
Bit rate mode : Variable
Bit rate : 126 Kbps
Channel(s) : 2 channels
Channel positions : Front: L R
Sampling rate : 44.1 KHz
Compression mode : Lossy
Stream size : 5.39 MiB (8%)
Title : ISO Media file produced by Google Inc.
Encoded date : UTC 2017-01-26 10:17:10
Tagged date : UTC 2017-01-26 10:17:10

Скриншоты

[Профиль] [ЛС]
Показать сообщения:    
Ответить на тему

Текущее время: 23-Фев 00:17

Часовой пояс: UTC + 3



Вы не можете начинать темы
Вы не можете отвечать на сообщения
Вы не можете редактировать свои сообщения
Вы не можете удалять свои сообщения
Вы не можете голосовать в опросах
Вы не можете прикреплять файлы к сообщениям
Вы можете скачивать файлы