BitTorrent клиенты



Как устроен человек? (Сергей Меринов) [2015, Россия, музыкальный мультфильм, WEBRip-AVC]

Ответить на тему
 
Автор Сообщение

Alex ®

Пол: Не указан

Стаж: 1 год

Сообщений: 855

Создавать темы 06-Фев-2018 00:56

[Цитировать]

Как устроен человек?
Страна: Россия
Жанр: музыкальный мультфильм
Продолжительность: 00:02:11
Год выпуска: 2015
Режиссёр: Сергей Меринов
Композитор: Сергей Суслин
Поёт: Ирина Богушевская
Описание: Манная каша по имени Маша и смартфон Агафон при помощи весёлой песенки пытаются рассказать, как устроен человек.
Качество: WEBRip-AVC
Формат: MP4
Видео: 940 kbps, 1280х720 (16:9), 25.000 fps, AVC (High@L4.1)
Аудио: 126 kbps, 44.1 kHz, 2 channels, AAC (LC)
Субтитры: отсутствуют

Подробные технические данные

General
Complete name : Как устроен человек (2015).mp4
Format : MPEG-4
Format profile : Base Media / Version 2
Codec ID : mp42
File size : 16.8 MiB
Duration : 2mn 11s
Overall bit rate mode : Variable
Overall bit rate : 1 070 Kbps
Encoded date : UTC 2017-04-21 07:59:03
Tagged date : UTC 2017-04-21 07:59:03
gsst : 0
gstd : 132051
Video
ID : 1
Format : AVC
Format/Info : Advanced Video Codec
Format profile : Main@L3.1
Format settings, CABAC : Yes
Format settings, ReFrames : 3 frames
Codec ID : avc1
Codec ID/Info : Advanced Video Coding
Duration : 2mn 11s
Bit rate : 940 Kbps
Width : 1 280 pixels
Height : 720 pixels
Display aspect ratio : 16:9
Frame rate mode : Constant
Frame rate : 25.000 fps
Color space : YUV
Chroma subsampling : 4:2:0
Bit depth : 8 bits
Scan type : Progressive
Bits/(Pixel*Frame) : 0.041
Stream size : 14.8 MiB (88%)
Title : ISO Media file produced by Google Inc.
Encoded date : UTC 2017-04-21 07:59:03
Tagged date : UTC 2017-04-21 07:59:03
Color primaries : BT.709
Transfer characteristics : BT.709
Matrix coefficients : BT.709
Audio
ID : 2
Format : AAC
Format/Info : Advanced Audio Codec
Format profile : LC
Codec ID : 40
Duration : 2mn 11s
Bit rate mode : Variable
Bit rate : 126 Kbps
Channel(s) : 2 channels
Channel positions : Front: L R
Sampling rate : 44.1 KHz
Compression mode : Lossy
Stream size : 1.98 MiB (12%)
Title : ISO Media file produced by Google Inc.
Encoded date : UTC 2017-04-21 07:59:03
Tagged date : UTC 2017-04-21 07:59:03

Скриншоты

[Профиль] [ЛС]
Показать сообщения:    
Ответить на тему

Текущее время: 19-Фев 16:47

Часовой пояс: UTC + 3



Вы не можете начинать темы
Вы не можете отвечать на сообщения
Вы не можете редактировать свои сообщения
Вы не можете удалять свои сообщения
Вы не можете голосовать в опросах
Вы не можете прикреплять файлы к сообщениям
Вы можете скачивать файлы