Статистика раздачи
Размер:  3,19 GB   |    Зарегистрирован:  9 месяцев 24 дня   |    Скачан:  0 раз

Полного источника не было: Никогда

 
   
 
 

irkutsk ®

Пол:
Не указан
Стаж:
9 месяцев 25 дней
Сообщений:
175

Южный Парк / South Park
Сезон 18 Эпизод 1-10 из 10
- Год выпуска: 2014
Страна: США
Жанр: комедия, мультсериал
Продолжительность: ~ 00:22:00
Перевод: Субтитры - Doctor Joker (1-2, 4-10) & Stevvie (3)
Режиссер: Мэтт Стоун, Трей Паркер-Описание: Южный Парк / South Park — американский мультсериал, созданный Мэттом Стоуном и Треем Паркером. Иногда название переводится также как «Саут-Парк» или «Саус-Парк». Выпускается кабельным телеканалом Comedy Central с 1997 года. Основу сюжета составляют приключения четырёх мальчиков и их друзей, живущих в маленьком городке Саут-Парк, штат Колорадо. Сериал высмеивает недостатки американской культуры и текущие мировые события, а также подвергает критике множество глубоких убеждений и табу посредством пародии и чёрного юмора. «Южный Парк» выходит поздно вечером и позиционируется как мультфильм для взрослых.-Качество: HDTVRip 720p
Формат: MKV
Видео кодек: AVC
Аудио кодек: AC3
Видео: AVC; ~ 2500 Kbps (9) & ~ 2400 Kbps (10) & ~ 2350 Kbps (5) & ~ 2200 Kbps (4, 6) & ~ 2050 Kbps (8) & ~ 1950 Kbps (2) & ~ 1800 Kbps (7) & ~ 1750 Kbps (1) & ~ 1700 Kbps (3); 1280x720; 23.976 fps
Аудио: AC3; 384 Kbps VBR; 6 channels; 48 KHz-

Описание Эпизодов

01 - Go Fund Yourself

The boys name their new start-up company, The Washington Redskins.
-

02 - Gluten Free Ebola

South Park goes gluten free.
-

03 - The Cissy

Randy is harboring a giant secret and the pressure is getting to him. Meanwhile, Cartman calls Stan a cissy.
-

04 - Handicar

Timmy's successful new car service makes him a lot of enemies.
-

05 - The Magic Bush

Cartman and Butters get their hands on a drone and take it for a spin around the neighborhood.
-

06 - Freemium Isn't Free

Stan is addicted to the new Terrance and Phillip mobile game.
-

07 - Grounded Vindaloop

Butters is convinced he's living in a virtual reality.
-

08 - Cock Magic

There are illegal goings-on in the basement of City Wok.
-

09 - #REHASH

Kyle just wants to play video games with his little brother. But, when Ike doesn't want to play with him anymore, Kyle is afraid that the next generation is passing him by.
-

10 - #HappyHolograms

Cartmaan Bra is trending as the country prepares to watch the biggest Holiday Spectacular ever.
-

MediaInfo

01 - Go Fund Yourself

Код:General
Unique ID : 229460122936389312997315691360310911637 (0xACA06984AAE78C1923B567213E71E295)
Complete name : C:\South Park - Сезон 18\South.Park.S18E01.720p.HDTV.x264-KILLERS.mkv
Format : Matroska
Format version : Version 4 / Version 2
File size : 271 MiB
Duration : 21mn 44s
Overall bit rate : 1 745 Kbps
Encoded date : UTC 2014-09-25 02:33:57
Writing application : mkvmerge v7.0.0 ('Where We Going') 64bit built on Jun 22 2014 08:19:39
Writing library : libebml v1.3.0 + libmatroska v1.4.1
Video
ID : 1
Format : AVC
Format/Info : Advanced Video Codec
Format profile : High@L4.1
Format settings, CABAC : Yes
Format settings, ReFrames : 5 frames
Codec ID : V_MPEG4/ISO/AVC
Duration : 21mn 44s
Bit rate : 1 326 Kbps
Width : 1 280 pixels
Height : 720 pixels
Display aspect ratio : 16:9
Frame rate mode : Constant
Frame rate : 23.976 fps
Color space : YUV
Chroma subsampling : 4:2:0
Bit depth : 8 bits
Scan type : Progressive
Bits/(Pixel*Frame) : 0.060
Stream size : 206 MiB (76%)
Writing library : x264 core 142 r2479 dd79a61
Encoding settings : cabac=1 / ref=5 / deblock=1:0:0 / analyse=0x3:0x113 / me=umh / subme=8 / psy=1 / psy_rd=1.00:0.00 / mixed_ref=1 / me_range=16 / chroma_me=1 / trellis=1 / 8x8dct=1 / cqm=0 / deadzone=21,11 / fast_pskip=1 / chroma_qp_offset=-2 / threads=18 / lookahead_threads=3 / sliced_threads=0 / nr=0 / decimate=1 / interlaced=0 / bluray_compat=0 / constrained_intra=0 / bframes=3 / b_pyramid=2 / b_adapt=2 / b_bias=0 / direct=3 / weightb=1 / open_gop=0 / weightp=2 / keyint=250 / keyint_min=23 / scenecut=40 / intra_refresh=0 / rc_lookahead=50 / rc=crf / mbtree=1 / crf=18.0 / qcomp=0.60 / qpmin=0 / qpmax=69 / qpstep=4 / ip_ratio=1.40 / aq=1:1.00
Language : English
Default : Yes
Forced : No
Matrix coefficients : BT.709
Audio
ID : 2
Format : AC-3
Format/Info : Audio Coding 3
Mode extension : CM (complete main)
Format settings, Endianness : Big
Codec ID : A_AC3
Duration : 21mn 44s
Bit rate mode : Constant
Bit rate : 384 Kbps
Channel(s) : 6 channels
Channel positions : Front: L C R, Side: L R, LFE
Sampling rate : 48.0 KHz
Bit depth : 16 bits
Compression mode : Lossy
Stream size : 59.7 MiB (22%)
Default : Yes
Forced : No
-

02 - Gluten Free Ebola

Код:General
Unique ID : 309250113242356047297631438964475329298 (0xE8A767C45A614027B1E34EA70D487B12)
Complete name : C:\South Park - Сезон 18\South.Park.S18E02.720p.HDTV.x264-KILLERS.mkv
Format : Matroska
Format version : Version 4 / Version 2
File size : 308 MiB
Duration : 22mn 0s
Overall bit rate : 1 955 Kbps
Encoded date : UTC 2014-10-02 02:32:24
Writing application : mkvmerge v7.0.0 ('Where We Going') 64bit built on Jun 22 2014 08:19:39
Writing library : libebml v1.3.0 + libmatroska v1.4.1
Video
ID : 1
Format : AVC
Format/Info : Advanced Video Codec
Format profile : High@L4.1
Format settings, CABAC : Yes
Format settings, ReFrames : 5 frames
Codec ID : V_MPEG4/ISO/AVC
Duration : 22mn 0s
Bit rate : 1 532 Kbps
Width : 1 280 pixels
Height : 720 pixels
Display aspect ratio : 16:9
Frame rate mode : Constant
Frame rate : 23.976 fps
Color space : YUV
Chroma subsampling : 4:2:0
Bit depth : 8 bits
Scan type : Progressive
Bits/(Pixel*Frame) : 0.069
Stream size : 241 MiB (78%)
Writing library : x264 core 142 r2479 dd79a61
Encoding settings : cabac=1 / ref=5 / deblock=1:0:0 / analyse=0x3:0x113 / me=umh / subme=8 / psy=1 / psy_rd=1.00:0.00 / mixed_ref=1 / me_range=16 / chroma_me=1 / trellis=1 / 8x8dct=1 / cqm=0 / deadzone=21,11 / fast_pskip=1 / chroma_qp_offset=-2 / threads=18 / lookahead_threads=3 / sliced_threads=0 / nr=0 / decimate=1 / interlaced=0 / bluray_compat=0 / constrained_intra=0 / bframes=3 / b_pyramid=2 / b_adapt=2 / b_bias=0 / direct=3 / weightb=1 / open_gop=0 / weightp=2 / keyint=250 / keyint_min=23 / scenecut=40 / intra_refresh=0 / rc_lookahead=50 / rc=crf / mbtree=1 / crf=18.0 / qcomp=0.60 / qpmin=0 / qpmax=69 / qpstep=4 / ip_ratio=1.40 / aq=1:1.00
Language : English
Default : Yes
Forced : No
Matrix coefficients : BT.709
Audio
ID : 2
Format : AC-3
Format/Info : Audio Coding 3
Mode extension : CM (complete main)
Format settings, Endianness : Big
Codec ID : A_AC3
Duration : 22mn 0s
Bit rate mode : Constant
Bit rate : 384 Kbps
Channel(s) : 6 channels
Channel positions : Front: L C R, Side: L R, LFE
Sampling rate : 48.0 KHz
Bit depth : 16 bits
Compression mode : Lossy
Stream size : 60.4 MiB (20%)
Default : Yes
Forced : No
-

03 - The Cissy

Код:General
Unique ID : 302772289276028833141406888716932074001 (0xE3C7D2631B2405B43B5E1110708DCA11)
Complete name : C:\South Park - Сезон 18\South.Park.S18E03.720p.HDTV.x264-KILLERS.mkv
Format : Matroska
Format version : Version 4 / Version 2
File size : 269 MiB
Duration : 22mn 0s
Overall bit rate : 1 709 Kbps
Encoded date : UTC 2014-10-09 02:36:23
Writing application : mkvmerge v7.0.0 ('Where We Going') 64bit built on Jun 22 2014 08:19:39
Writing library : libebml v1.3.0 + libmatroska v1.4.1
Video
ID : 1
Format : AVC
Format/Info : Advanced Video Codec
Format profile : High@L4.1
Format settings, CABAC : Yes
Format settings, ReFrames : 5 frames
Codec ID : V_MPEG4/ISO/AVC
Bit rate : 1 291 Kbps
Width : 1 280 pixels
Height : 720 pixels
Display aspect ratio : 16:9
Frame rate mode : Variable
Original frame rate : 23.976 fps
Color space : YUV
Chroma subsampling : 4:2:0
Bit depth : 8 bits
Scan type : Progressive
Writing library : x264 core 142 r2479 dd79a61
Encoding settings : cabac=1 / ref=5 / deblock=1:0:0 / analyse=0x3:0x113 / me=umh / subme=8 / psy=1 / psy_rd=1.00:0.00 / mixed_ref=1 / me_range=16 / chroma_me=1 / trellis=1 / 8x8dct=1 / cqm=0 / deadzone=21,11 / fast_pskip=1 / chroma_qp_offset=-2 / threads=18 / lookahead_threads=3 / sliced_threads=0 / nr=0 / decimate=1 / interlaced=0 / bluray_compat=0 / constrained_intra=0 / bframes=3 / b_pyramid=2 / b_adapt=2 / b_bias=0 / direct=3 / weightb=1 / open_gop=0 / weightp=2 / keyint=250 / keyint_min=23 / scenecut=40 / intra_refresh=0 / rc_lookahead=50 / rc=crf / mbtree=1 / crf=18.0 / qcomp=0.60 / qpmin=0 / qpmax=69 / qpstep=4 / ip_ratio=1.40 / aq=1:1.00
Language : English
Default : Yes
Forced : No
Matrix coefficients : BT.709
Audio
ID : 2
Format : AC-3
Format/Info : Audio Coding 3
Mode extension : CM (complete main)
Format settings, Endianness : Big
Codec ID : A_AC3
Duration : 22mn 0s
Bit rate mode : Constant
Bit rate : 384 Kbps
Channel(s) : 6 channels
Channel positions : Front: L C R, Side: L R, LFE
Sampling rate : 48.0 KHz
Bit depth : 16 bits
Compression mode : Lossy
Stream size : 60.4 MiB (22%)
Default : Yes
Forced : No
-

04 - Handicar

Код:General
Unique ID : 205585072148094142510594800352328355159 (0x9AAA3EA1D5B2E6E1348F3B7114C70D57)
Complete name : C:\South Park - Сезон 18\South.Park.S18E04.720p.HDTV.x264-KILLERS.mkv
Format : Matroska
Format version : Version 4 / Version 2
File size : 340 MiB
Duration : 21mn 46s
Overall bit rate : 2 182 Kbps
Encoded date : UTC 2014-10-16 02:34:04
Writing application : mkvmerge v7.0.0 ('Where We Going') 64bit built on Jun 22 2014 08:19:39
Writing library : libebml v1.3.0 + libmatroska v1.4.1
Video
ID : 1
Format : AVC
Format/Info : Advanced Video Codec
Format profile : High@L4.1
Format settings, CABAC : Yes
Format settings, ReFrames : 5 frames
Codec ID : V_MPEG4/ISO/AVC
Duration : 21mn 46s
Bit rate : 1 755 Kbps
Width : 1 280 pixels
Height : 720 pixels
Display aspect ratio : 16:9
Frame rate mode : Constant
Frame rate : 23.976 fps
Color space : YUV
Chroma subsampling : 4:2:0
Bit depth : 8 bits
Scan type : Progressive
Bits/(Pixel*Frame) : 0.079
Stream size : 273 MiB (80%)
Writing library : x264 core 142 r2479 dd79a61
Encoding settings : cabac=1 / ref=5 / deblock=1:0:0 / analyse=0x3:0x113 / me=umh / subme=8 / psy=1 / psy_rd=1.00:0.00 / mixed_ref=1 / me_range=16 / chroma_me=1 / trellis=1 / 8x8dct=1 / cqm=0 / deadzone=21,11 / fast_pskip=1 / chroma_qp_offset=-2 / threads=18 / lookahead_threads=3 / sliced_threads=0 / nr=0 / decimate=1 / interlaced=0 / bluray_compat=0 / constrained_intra=0 / bframes=3 / b_pyramid=2 / b_adapt=2 / b_bias=0 / direct=3 / weightb=1 / open_gop=0 / weightp=2 / keyint=250 / keyint_min=23 / scenecut=40 / intra_refresh=0 / rc_lookahead=50 / rc=crf / mbtree=1 / crf=18.0 / qcomp=0.60 / qpmin=0 / qpmax=69 / qpstep=4 / ip_ratio=1.40 / aq=1:1.00
Language : English
Default : Yes
Forced : No
Matrix coefficients : BT.709
Audio
ID : 2
Format : AC-3
Format/Info : Audio Coding 3
Mode extension : CM (complete main)
Format settings, Endianness : Big
Codec ID : A_AC3
Duration : 21mn 46s
Bit rate mode : Constant
Bit rate : 384 Kbps
Channel(s) : 6 channels
Channel positions : Front: L C R, Side: L R, LFE
Sampling rate : 48.0 KHz
Bit depth : 16 bits
Compression mode : Lossy
Stream size : 59.8 MiB (18%)
Default : Yes
Forced : No
-

05 - The Magic Bush

Код:General
Unique ID : 272620571510013229936622650332130933705 (0xCD18CFED2C113A7BC9F89425E1B17BC9)
Complete name : C:\South Park - Сезон 18\South.Park.S18E05.720p.HDTV.x264-KILLERS.mkv
Format : Matroska
Format version : Version 4 / Version 2
File size : 369 MiB
Duration : 22mn 1s
Overall bit rate : 2 346 Kbps
Encoded date : UTC 2014-10-30 02:48:51
Writing application : mkvmerge v7.0.0 ('Where We Going') 64bit built on Jun 22 2014 08:19:39
Writing library : libebml v1.3.0 + libmatroska v1.4.1
Video
ID : 1
Format : AVC
Format/Info : Advanced Video Codec
Format profile : High@L4.1
Format settings, CABAC : Yes
Format settings, ReFrames : 5 frames
Codec ID : V_MPEG4/ISO/AVC
Duration : 22mn 1s
Bit rate : 1 915 Kbps
Width : 1 280 pixels
Height : 720 pixels
Display aspect ratio : 16:9
Frame rate mode : Constant
Frame rate : 23.976 fps
Color space : YUV
Chroma subsampling : 4:2:0
Bit depth : 8 bits
Scan type : Progressive
Bits/(Pixel*Frame) : 0.087
Stream size : 302 MiB (82%)
Writing library : x264 core 142 r2479 dd79a61
Encoding settings : cabac=1 / ref=5 / deblock=1:0:0 / analyse=0x3:0x113 / me=umh / subme=8 / psy=1 / psy_rd=1.00:0.00 / mixed_ref=1 / me_range=16 / chroma_me=1 / trellis=1 / 8x8dct=1 / cqm=0 / deadzone=21,11 / fast_pskip=1 / chroma_qp_offset=-2 / threads=18 / lookahead_threads=3 / sliced_threads=0 / nr=0 / decimate=1 / interlaced=0 / bluray_compat=0 / constrained_intra=0 / bframes=3 / b_pyramid=2 / b_adapt=2 / b_bias=0 / direct=3 / weightb=1 / open_gop=0 / weightp=2 / keyint=250 / keyint_min=23 / scenecut=40 / intra_refresh=0 / rc_lookahead=50 / rc=crf / mbtree=1 / crf=18.0 / qcomp=0.60 / qpmin=0 / qpmax=69 / qpstep=4 / ip_ratio=1.40 / aq=1:1.00
Language : English
Default : Yes
Forced : No
Matrix coefficients : BT.709
Audio
ID : 2
Format : AC-3
Format/Info : Audio Coding 3
Mode extension : CM (complete main)
Format settings, Endianness : Big
Codec ID : A_AC3
Duration : 22mn 1s
Bit rate mode : Constant
Bit rate : 384 Kbps
Channel(s) : 6 channels
Channel positions : Front: L C R, Side: L R, LFE
Sampling rate : 48.0 KHz
Bit depth : 16 bits
Compression mode : Lossy
Stream size : 60.5 MiB (16%)
Default : Yes
Forced : No
-

06 - Freemium Isn't Free

Код:General
Unique ID : 134089266921512192455512163416062852049 (0x64E0A747BEFAE30765C6F440741C7BD1)
Complete name : C:\South Park - Сезон 18\South.Park.S18E06.720p.HDTV.x264-DIMENSION.mkv
Format : Matroska
Format version : Version 4 / Version 2
File size : 339 MiB
Duration : 21mn 45s
Overall bit rate : 2 177 Kbps
Encoded date : UTC 2014-11-06 03:57:46
Writing application : mkvmerge v6.7.0 ('Back to the Ground') 64bit built on Jan 8 2014 14:31:51
Writing library : libebml v1.3.0 + libmatroska v1.4.1
Video
ID : 1
Format : AVC
Format/Info : Advanced Video Codec
Format profile : High@L4.1
Format settings, CABAC : Yes
Format settings, ReFrames : 5 frames
Codec ID : V_MPEG4/ISO/AVC
Duration : 21mn 45s
Bit rate : 1 749 Kbps
Width : 1 280 pixels
Height : 720 pixels
Display aspect ratio : 16:9
Frame rate mode : Constant
Frame rate : 23.976 fps
Color space : YUV
Chroma subsampling : 4:2:0
Bit depth : 8 bits
Scan type : Progressive
Bits/(Pixel*Frame) : 0.079
Stream size : 272 MiB (80%)
Writing library : x264 core 142 r2479 dd79a61
Encoding settings : cabac=1 / ref=5 / deblock=1:1:1 / analyse=0x3:0x113 / me=umh / subme=8 / psy=1 / psy_rd=1.00:0.00 / mixed_ref=1 / me_range=16 / chroma_me=1 / trellis=1 / 8x8dct=1 / cqm=0 / deadzone=21,11 / fast_pskip=1 / chroma_qp_offset=-2 / threads=18 / lookahead_threads=4 / sliced_threads=0 / nr=0 / decimate=1 / interlaced=0 / bluray_compat=0 / constrained_intra=0 / bframes=5 / b_pyramid=2 / b_adapt=2 / b_bias=0 / direct=3 / weightb=1 / open_gop=0 / weightp=2 / keyint=250 / keyint_min=23 / scenecut=40 / intra_refresh=0 / rc_lookahead=50 / rc=crf / mbtree=1 / crf=18.0 / qcomp=0.60 / qpmin=0 / qpmax=69 / qpstep=4 / ip_ratio=1.40 / aq=1:1.00
Default : No
Forced : No
Audio
ID : 2
Format : AC-3
Format/Info : Audio Coding 3
Mode extension : CM (complete main)
Format settings, Endianness : Big
Codec ID : A_AC3
Duration : 21mn 45s
Bit rate mode : Constant
Bit rate : 384 Kbps
Channel(s) : 6 channels
Channel positions : Front: L C R, Side: L R, LFE
Sampling rate : 48.0 KHz
Bit depth : 16 bits
Compression mode : Lossy
Delay relative to video : -83ms
Stream size : 59.8 MiB (18%)
Default : Yes
Forced : No
-

07 - Grounded Vindaloop

Код:General
Unique ID : 323729899966422752316807204407635539736 (0xF38C1C5EF433F2115452E2F5F5AEF718)
Complete name : C:\South Park - Сезон 18\South.Park.S18E07.720p.HDTV.x264-KILLERS.mkv
Format : Matroska
Format version : Version 4 / Version 2
File size : 283 MiB
Duration : 21mn 45s
Overall bit rate : 1 819 Kbps
Encoded date : UTC 2014-11-13 03:34:41
Writing application : mkvmerge v7.0.0 ('Where We Going') 64bit built on Jun 22 2014 08:19:39
Writing library : libebml v1.3.0 + libmatroska v1.4.1
Video
ID : 1
Format : AVC
Format/Info : Advanced Video Codec
Format profile : High@L4.1
Format settings, CABAC : Yes
Format settings, ReFrames : 5 frames
Codec ID : V_MPEG4/ISO/AVC
Duration : 21mn 45s
Bit rate : 1 399 Kbps
Width : 1 280 pixels
Height : 720 pixels
Display aspect ratio : 16:9
Frame rate mode : Constant
Frame rate : 23.976 fps
Color space : YUV
Chroma subsampling : 4:2:0
Bit depth : 8 bits
Scan type : Progressive
Bits/(Pixel*Frame) : 0.063
Stream size : 218 MiB (77%)
Writing library : x264 core 142 r2479 dd79a61
Encoding settings : cabac=1 / ref=5 / deblock=1:0:0 / analyse=0x3:0x113 / me=umh / subme=8 / psy=1 / psy_rd=1.00:0.00 / mixed_ref=1 / me_range=16 / chroma_me=1 / trellis=1 / 8x8dct=1 / cqm=0 / deadzone=21,11 / fast_pskip=1 / chroma_qp_offset=-2 / threads=12 / lookahead_threads=2 / sliced_threads=0 / nr=0 / decimate=1 / interlaced=0 / bluray_compat=0 / constrained_intra=0 / bframes=3 / b_pyramid=2 / b_adapt=2 / b_bias=0 / direct=3 / weightb=1 / open_gop=0 / weightp=2 / keyint=250 / keyint_min=23 / scenecut=40 / intra_refresh=0 / rc_lookahead=50 / rc=crf / mbtree=1 / crf=18.0 / qcomp=0.60 / qpmin=0 / qpmax=69 / qpstep=4 / ip_ratio=1.40 / aq=1:1.00
Language : English
Default : Yes
Forced : No
Matrix coefficients : BT.709
Audio
ID : 2
Format : AC-3
Format/Info : Audio Coding 3
Mode extension : CM (complete main)
Format settings, Endianness : Big
Codec ID : A_AC3
Duration : 21mn 45s
Bit rate mode : Constant
Bit rate : 384 Kbps
Channel(s) : 6 channels
Channel positions : Front: L C R, Side: L R, LFE
Sampling rate : 48.0 KHz
Bit depth : 16 bits
Compression mode : Lossy
Stream size : 59.8 MiB (21%)
Default : Yes
Forced : No
-

08 - Cock Magic

Код:General
Unique ID : 105897791464430647854996586798086454182 (0x4FAB2C3A2B288766C44040BE63C17BA6)
Complete name : C:\South Park - Сезон 18\South.Park.S18E08.720p.HDTV.x264-DIMENSION.mkv
Format : Matroska
Format version : Version 4 / Version 2
File size : 323 MiB
Duration : 21mn 46s
Overall bit rate : 2 073 Kbps
Encoded date : UTC 2014-11-20 03:59:03
Writing application : mkvmerge v6.7.0 ('Back to the Ground') 64bit built on Jan 8 2014 14:31:51
Writing library : libebml v1.3.0 + libmatroska v1.4.1
Video
ID : 1
Format : AVC
Format/Info : Advanced Video Codec
Format profile : High@L4.1
Format settings, CABAC : Yes
Format settings, ReFrames : 5 frames
Codec ID : V_MPEG4/ISO/AVC
Duration : 21mn 46s
Bit rate : 1 648 Kbps
Width : 1 280 pixels
Height : 720 pixels
Display aspect ratio : 16:9
Frame rate mode : Constant
Frame rate : 23.976 fps
Color space : YUV
Chroma subsampling : 4:2:0
Bit depth : 8 bits
Scan type : Progressive
Bits/(Pixel*Frame) : 0.075
Stream size : 257 MiB (79%)
Writing library : x264 core 142 r2479 dd79a61
Encoding settings : cabac=1 / ref=5 / deblock=1:1:1 / analyse=0x3:0x113 / me=umh / subme=8 / psy=1 / psy_rd=1.00:0.00 / mixed_ref=1 / me_range=16 / chroma_me=1 / trellis=1 / 8x8dct=1 / cqm=0 / deadzone=21,11 / fast_pskip=1 / chroma_qp_offset=-2 / threads=18 / lookahead_threads=4 / sliced_threads=0 / nr=0 / decimate=1 / interlaced=0 / bluray_compat=0 / constrained_intra=0 / bframes=5 / b_pyramid=2 / b_adapt=2 / b_bias=0 / direct=3 / weightb=1 / open_gop=0 / weightp=2 / keyint=250 / keyint_min=23 / scenecut=40 / intra_refresh=0 / rc_lookahead=50 / rc=crf / mbtree=1 / crf=18.0 / qcomp=0.60 / qpmin=0 / qpmax=69 / qpstep=4 / ip_ratio=1.40 / aq=1:1.00
Default : No
Forced : No
Audio
ID : 2
Format : AC-3
Format/Info : Audio Coding 3
Mode extension : CM (complete main)
Format settings, Endianness : Big
Codec ID : A_AC3
Duration : 21mn 46s
Bit rate mode : Constant
Bit rate : 384 Kbps
Channel(s) : 6 channels
Channel positions : Front: L C R, Side: L R, LFE
Sampling rate : 48.0 KHz
Bit depth : 16 bits
Compression mode : Lossy
Delay relative to video : -83ms
Stream size : 59.8 MiB (19%)
Default : Yes
Forced : No
-

09 - #REHASH

Код:General
Unique ID : 164469074460683285531693172702934570691 (0x7BBB976F5BD18518441DB1898DF596C3)
Complete name : C:\South Park - Сезон 18\South.Park.S18E09.720p.HDTV.x264-KILLERS.mkv
Format : Matroska
Format version : Version 4 / Version 2
File size : 385 MiB
Duration : 21mn 44s
Overall bit rate : 2 476 Kbps
Encoded date : UTC 2014-12-04 03:32:53
Writing application : mkvmerge v7.0.0 ('Where We Going') 64bit built on Jun 22 2014 08:19:39
Writing library : libebml v1.3.0 + libmatroska v1.4.1
Video
ID : 1
Format : AVC
Format/Info : Advanced Video Codec
Format profile : High@L4.1
Format settings, CABAC : Yes
Format settings, ReFrames : 5 frames
Codec ID : V_MPEG4/ISO/AVC
Duration : 21mn 44s
Bit rate : 2 042 Kbps
Width : 1 280 pixels
Height : 720 pixels
Display aspect ratio : 16:9
Frame rate mode : Constant
Frame rate : 23.976 fps
Color space : YUV
Chroma subsampling : 4:2:0
Bit depth : 8 bits
Scan type : Progressive
Bits/(Pixel*Frame) : 0.092
Stream size : 318 MiB (82%)
Writing library : x264 core 142 r2491 24e4fed
Encoding settings : cabac=1 / ref=5 / deblock=1:0:0 / analyse=0x3:0x113 / me=umh / subme=8 / psy=1 / psy_rd=1.00:0.00 / mixed_ref=1 / me_range=16 / chroma_me=1 / trellis=1 / 8x8dct=1 / cqm=0 / deadzone=21,11 / fast_pskip=1 / chroma_qp_offset=-2 / threads=24 / lookahead_threads=4 / sliced_threads=0 / nr=0 / decimate=1 / interlaced=0 / bluray_compat=0 / constrained_intra=0 / bframes=3 / b_pyramid=2 / b_adapt=2 / b_bias=0 / direct=3 / weightb=1 / open_gop=0 / weightp=2 / keyint=250 / keyint_min=23 / scenecut=40 / intra_refresh=0 / rc_lookahead=50 / rc=crf / mbtree=1 / crf=18.0 / qcomp=0.60 / qpmin=0 / qpmax=69 / qpstep=4 / ip_ratio=1.40 / aq=1:1.00
Language : English
Default : Yes
Forced : No
Matrix coefficients : BT.709
Audio
ID : 2
Format : AC-3
Format/Info : Audio Coding 3
Mode extension : CM (complete main)
Format settings, Endianness : Big
Codec ID : A_AC3
Duration : 21mn 44s
Bit rate mode : Constant
Bit rate : 384 Kbps
Channel(s) : 6 channels
Channel positions : Front: L C R, Side: L R, LFE
Sampling rate : 48.0 KHz
Bit depth : 16 bits
Compression mode : Lossy
Stream size : 59.7 MiB (16%)
Default : Yes
Forced : No
-

10 - #HappyHolograms

Код:General
Unique ID : 327021232440244244850794954511723542496 (0xF605FF973057479A1A447CBCD26837E0)
Complete name : C:\South Park - Сезон 18\South.Park.S18E10.720p.HDTV.x264-KILLERS.mkv
Format : Matroska
Format version : Version 4 / Version 2
File size : 377 MiB
Duration : 21mn 45s
Overall bit rate : 2 424 Kbps
Encoded date : UTC 2014-12-11 03:33:29
Writing application : mkvmerge v7.0.0 ('Where We Going') 64bit built on Jun 22 2014 08:19:39
Writing library : libebml v1.3.0 + libmatroska v1.4.1
Video
ID : 1
Format : AVC
Format/Info : Advanced Video Codec
Format profile : High@L4.1
Format settings, CABAC : Yes
Format settings, ReFrames : 5 frames
Codec ID : V_MPEG4/ISO/AVC
Duration : 21mn 45s
Bit rate : 1 991 Kbps
Width : 1 280 pixels
Height : 720 pixels
Display aspect ratio : 16:9
Frame rate mode : Constant
Frame rate : 23.976 fps
Color space : YUV
Chroma subsampling : 4:2:0
Bit depth : 8 bits
Scan type : Progressive
Bits/(Pixel*Frame) : 0.090
Stream size : 310 MiB (82%)
Writing library : x264 core 142 r2491 24e4fed
Encoding settings : cabac=1 / ref=5 / deblock=1:0:0 / analyse=0x3:0x113 / me=umh / subme=8 / psy=1 / psy_rd=1.00:0.00 / mixed_ref=1 / me_range=16 / chroma_me=1 / trellis=1 / 8x8dct=1 / cqm=0 / deadzone=21,11 / fast_pskip=1 / chroma_qp_offset=-2 / threads=18 / lookahead_threads=3 / sliced_threads=0 / nr=0 / decimate=1 / interlaced=0 / bluray_compat=0 / constrained_intra=0 / bframes=3 / b_pyramid=2 / b_adapt=2 / b_bias=0 / direct=3 / weightb=1 / open_gop=0 / weightp=2 / keyint=250 / keyint_min=23 / scenecut=40 / intra_refresh=0 / rc_lookahead=50 / rc=crf / mbtree=1 / crf=18.0 / qcomp=0.60 / qpmin=0 / qpmax=69 / qpstep=4 / ip_ratio=1.40 / aq=1:1.00
Language : English
Default : Yes
Forced : No
Matrix coefficients : BT.709
Audio
ID : 2
Format : AC-3
Format/Info : Audio Coding 3
Mode extension : CM (complete main)
Format settings, Endianness : Big
Codec ID : A_AC3
Duration : 21mn 45s
Bit rate mode : Constant
Bit rate : 384 Kbps
Channel(s) : 6 channels
Channel positions : Front: L C R, Side: L R, LFE
Sampling rate : 48.0 KHz
Bit depth : 16 bits
Compression mode : Lossy
Stream size : 59.7 MiB (16%)
Default : Yes
Forced : No
-

Скриншоты

01 - Go Fund Yourself

-

02 - Gluten Free Ebola

-

03 - The Cissy

-

04 - Handicar

-

05 - The Magic Bush

-

06 - Freemium Isn't Free

-

07 - Grounded Vindaloop

-

08 - Cock Magic

-

09 - #REHASH

-

10 - #HappyHolograms

--Внимание! Раздача ведётся путём добавления новых эпизодов!
[www.cybertorrent.ru].t1994.torrent 
Торрент: Зарегистрирован [ 2018-02-16 08:44 ] · 7DC7826A0121FE236F5071B279EB1A068A1A5CAF

Скачать .torrent

Скачать

18 KB

Статус: проверено
Скачан: 0 раз
Размер: 3,19 GB
Профиль [ЛС]
Показать сообщения:    

Текущее время: 12-Дек 16:52

Часовой пояс: UTC ± 0



Вы не можете начинать темы
Вы не можете отвечать на сообщения
Вы не можете редактировать свои сообщения
Вы не можете удалять свои сообщения
Вы не можете голосовать в опросах
Вы не можете прикреплять файлы к сообщениям
Вы можете скачивать файлы
Torrents24.ru открытый BitTorrent Torrents24.pl открытый BitTorrent CyberTorrent.ru открытый BitTorrent BtList.ru рейтинг BitTorrent трекеров Яндекс.Метрика