BitTorrent клиенты



Маленькое одолжение (Борис Конунов) [1984, комедия, мелодрама, музыкальный, DVB-AVC]

Ответить на тему
 
Автор Сообщение

JetGun ®

Пол: Не указан

Стаж: 1 год

Сообщений: 437

Создавать темы 06-Фев-2018 00:57

[Цитировать]

Маленькое одолжение
Жанр: комедия, мелодрама, музыкальный
Год выпуска: 1984
Продолжительность: 01:15:55
Режиссёр: Борис Конунов
В ролях: Николай Караченцов, Лия Ахеджакова, Татьяна Догилева, Наталья Сайко, Людмила Иванова, Елена Костина
Описание: Однажды известный эстрадный певец Валентин Озерников, вернувшись из очередной гастрольной поездки, задумался над быстротекущей жизнью и попытался сформулировать себе нравственные критерии дальнейшего существования…-Доп. информация: запись с IPTV в Беларуси, ремукс записи потока *.ts в *.mkv программой VideoReDo.
Производство: Молдова-фильм по заказу Гостелерадио СССР
Сценарий: Виктория Токарева
Операторы: Дмитрий Моторный, Олег Диордиенко
Художник: Станислав Булгаков
Композитор: Максим Дунаевский
Семпл: http://sendfile.su/1387689
Качество видео: DVB
Формат видео: MKV
Видео: AVC (H264), 720x576@785x576 (4:3), анаморф, 25 fps, 1965 kbps
Аудио: MP2, 192 kbps, 2 channels, 48 kHz

MediaInfo

General
Unique ID : 164358557893396735367130912835938254052 (0x7BA64E8C2B702C665A762022945F7CE4)
Complete name : D:\Work\Video\Маленькое одолжение.mkv
Format : Matroska
Format version : Version 2
File size : 1.17 GiB
Duration : 1 h 15 min
Overall bit rate : 2 200 kb/s
Writing application : Lavf54.63.104
Writing library : Lavf54.63.104
Video
ID : 1
Format : AVC
Format/Info : Advanced Video Codec
Format profile : High@L3
Format settings, CABAC : Yes
Format settings, ReFrames : 4 frames
Format settings, GOP : M=4, N=28
Codec ID : V_MPEG4/ISO/AVC
Duration : 1 h 15 min
Bit rate : 1 965 kb/s
Width : 720 pixels
Height : 576 pixels
Display aspect ratio : 4:3
Original display aspect ratio : 4:3
Frame rate mode : Constant
Frame rate : 25.000 FPS
Standard : Component
Color space : YUV
Chroma subsampling : 4:2:0
Bit depth : 8 bits
Scan type : Interlaced
Scan type, store method : Separated fields
Scan order : Top Field First
Bits/(Pixel*Frame) : 0.189
Stream size : 1.04 GiB (89%)
Default : No
Forced : No
Color range : Limited
Color primaries : BT.601 PAL
Transfer characteristics : BT.470 System B, BT.470 System G
Matrix coefficients : BT.601
Audio
ID : 2
Format : MPEG Audio
Format version : Version 1
Format profile : Layer 2
Codec ID : A_MPEG/L2
Codec ID/Hint : MP2
Duration : 1 h 15 min
Bit rate mode : Constant
Bit rate : 192 kb/s
Channel(s) : 2 channels
Sampling rate : 48.0 kHz
Compression mode : Lossy
Stream size : 104 MiB (9%)
Language : Russian
Default : Yes
Forced : No
[Профиль] [ЛС]
Показать сообщения:    
Ответить на тему

Текущее время: 23-Фев 00:01

Часовой пояс: UTC + 3



Вы не можете начинать темы
Вы не можете отвечать на сообщения
Вы не можете редактировать свои сообщения
Вы не можете удалять свои сообщения
Вы не можете голосовать в опросах
Вы не можете прикреплять файлы к сообщениям
Вы можете скачивать файлы