Статистика раздачи
Размер:  8,7 GB   |    Зарегистрирован:  8 месяцев 7 дней   |    Скачан:  1 раз

Полного источника не было: 6 месяцев 11 дней

 
   
 
 

firebird ®

Пол:
Не указан
Стаж:
8 месяцев 8 дней
Сообщений:
335

Покемон: XY / Pokemon the Series: XY- Страна: Япония / США
Год выпуска: 2014 г.
Жанр: приключения, комедия, фэнтези
Тип: TV-сериал
Серии: 48 эпизодов по 21 минуте
Автор оригинала: Тадзири Сатоси
Режиссер оригинала: Юяма Кунихико
Студия: OLM-Релиз подготовлен группой Free Releasers Team "SORA"
  • Сведение звука: Ampho_dub
  • Перевод и озвучивание: SDI Media
  • Роли озвучивали: Иван Калинин, Мария Иващенко, Лариса Некипелова, Наталья Грачева, Петр Иващенко, Дарья Фролова, Дмитрий Филимонов, Ольга Шорохова, Наталья Терешкова, Александр Дасевич, Ольга Зверева, Татьяна Шарко, Сергей Смирнов, Андрей Гриневич-Описание: Пришло время для Эша и Пикачу начать их новое путешествие в регионе Калос. В пути к ним присоединятся новые друзья: гениальный изобретатель Клемонт, его младшая сестра Бонни и тренер Серена, для которой это путешествие — первое. Эш сразу же пытается сразиться на стадионе города Лумиоз, но терпит неудачу, так как робот выгоняет его! Помимо битв на стадионах, Эш и его друзья будут изучать этот уникальный регион, встречать незнакомые им виды покемонов и исследовать новую тайну!-Качество: WEBRip | Формат: AVI | Энкод: Ampho_dub
    Тип релиза: Без хардсаба | Совместимость с бытовыми плеерами: Да
    Видео: XVID (8 bit) 720x408, ~1300 kbps, 29.970 fps
    в составе контейнера:
    Аудио: AC3, 192 kbps, 48 kHz, 2 ch [Russian] Озвучка 1: [DUB] - Многоголосый, Дублированный [SDI Media]

    Список эпизодов

    01. Регион Калос. Где рождаются мечты и начинаются приключения!
    02. Погоня в Люмиос Сити!
    03. Битва за присутствие в воздухе!
    04. Новая шокирующая дружба!
    05. Бурная гим-битва в Санталун-сити!
    06. Битва на тонком льду!
    07. Догоняющий на скачках Райхорнов!
    08. Стрижка для Фурфру!
    09. У Клемонта есть Секрет!
    10. Мега безумие с мега мяутом!
    11. Приключения в бамбуковом лесу!
    12. В погоне за контрабандистом покемонов!
    13. Хаос в детском саду!
    14. Скрываясь от грозы!
    15. Аппетит к битве!
    16. Неразбериха с сумками!
    17. Немного мудрости ниндзя!
    18. Пробуждение спящего гиганта!
    19. Заговор на покорение
    20. Зарабатывая титулы в замке!
    21. Новая звезда покевидения!
    22. В поисках золота!
    23. Назад, в холод!
    24. Карабкаясь по стенам!
    25. Кулинарный поединок!
    26. В поисках цветка фей!
    27. Узы Эволюции!
    28. Герои! Хорошие и не очень!
    29. Мега открытия!
    30. Пещера испытаний!
    31. Ураган Ауры!
    32. Зов из-за пределов ауры!
    33. Узы мега-эволюции!
    34. Лесной чемпион!
    35. Битвы в небе!
    36. Пещера зеркал!
    37. Укрепление лесной дружбы!
    38. Лето открытия!
    39. Блокбастеры третьего дня!
    40. Ориентирование с покемонами в тумане!
    41. Бой за зал Славы!
    42. Корни мега-эволюции!
    43. Время боя в гиме Шалур!
    44. Ссора наследников!
    45. Плакса справляется с хаосом!
    46. Рождение мечты исполнителя!
    47. Школьное воссоединение!
    48. Бонни на защите!

    Подробные тех. данные

    General
    Complete name : [FRT Sora] Pokemon XY [HWP]\[FRT Sora] Pokemon S17 E01 [HWP].avi
    Format : AVI
    Format/Info : Audio Video Interleave
    File size : 208 MiB
    Duration : 21 min 20 s
    Overall bit rate : 1 363 kb/s
    Writing application : Lavf57.41.100
    Video
    ID : 0
    Format : MPEG-4 Visual
    Format profile : Advanced Simple@L5
    Format settings, BVOP : 1
    Format settings, QPel : Yes
    Format settings, GMC : No warppoints
    Format settings, Matrix : Default (H.263)
    Codec ID : XVID
    Codec ID/Hint : XviD
    Duration : 21 min 20 s
    Bit rate : 1 159 kb/s
    Width : 720 pixels
    Height : 408 pixels
    Display aspect ratio : 16:9
    Frame rate : 29.970 (30000/1001) FPS
    Color space : YUV
    Chroma subsampling : 4:2:0
    Bit depth : 8 bits
    Scan type : Progressive
    Compression mode : Lossy
    Bits/(Pixel*Frame) : 0.132
    Stream size : 177 MiB (85%)
    Title : 1080p
    Writing library : XviD 67
    Audio
    ID : 1
    Format : AC-3
    Format/Info : Audio Coding 3
    Mode extension : CM (complete main)
    Format settings, Endianness : Big
    Codec ID : 2000
    Duration : 21 min 20 s
    Bit rate mode : Constant
    Bit rate : 192 kb/s
    Channel(s) : 2 channels
    Channel positions : Front: L R
    Sampling rate : 48.0 kHz
    Frame rate : 31.250 FPS (1536 spf)
    Bit depth : 16 bits
    Compression mode : Lossy
    Stream size : 29.3 MiB (14%)
    Alignment : Aligned on interleaves
    Interleave, duration : 32 ms (0.96 video frame)

    Скриншоты

    Отличия

    WEBRip 1080p - Совместимость с бытовыми плеерами
    HDTVRip 720p - Совместимость с бытовыми плеерами
    [www.cybertorrent.ru].t1990.torrent 
    Торрент: Зарегистрирован [ 2018-02-16 08:44 ] · BC4B890DA65EB44E9473C11B5BA092C218A0743E

    Скачать .torrent

    Скачать

    26 KB

    Статус: проверено
    Скачан: 1 раз
    Размер: 8,7 GB
  • Профиль [ЛС]
    Показать сообщения:    

    Текущее время: 24-Окт 05:22

    Часовой пояс: UTC ± 0



    Вы не можете начинать темы
    Вы не можете отвечать на сообщения
    Вы не можете редактировать свои сообщения
    Вы не можете удалять свои сообщения
    Вы не можете голосовать в опросах
    Вы не можете прикреплять файлы к сообщениям
    Вы можете скачивать файлы
    Torrents24.ru открытый BitTorrent Torrents24.pl открытый BitTorrent CyberTorrent.ru открытый BitTorrent BtList.ru рейтинг BitTorrent трекеров Яндекс.Метрика