Статистика раздачи
Размер:  325 MB   |    Зарегистрирован:  6 месяцев 5 дней   |    Скачан:  0 раз

Полного источника не было: Никогда

Личеров:  1  [  0 KB/s  ]  
 
   
 
 

karapuz ®

Пол:
Не указан
Стаж:
6 месяцев 6 дней
Сообщений:
128

Скуби-Ду! Призрачные Голы! / Scooby-Doo! Ghastly Goals!
Страна: США
Жанр: ужасы, детектив, комедия, семейный
Продолжительность: 00:22:33
Год выпуска: 2014
Перевод: Одноголосый закадровый (SerKuS aka Shaggy-rocker)
Русские субтитры: есть
Режиссёр: Виктор Кук / Victor Cook
Описание: Специальный выпуск, посвященный чемпионату мира по футболу в Бразилии.
Доп. информация: Озвучил по субтитрам yaroslav230596 (надеюсь он не против,я заменил лишь некоторые слова,но смысл остался тем же).Озвучивал первый раз, так что не судите строго надеюсь понравится.
Ссылка на предыдущие и альтернативные раздачи
Семпл: http://multi-up.com/997216
Качество: DVDRip
Формат: AVI
Видео: 720x400 , 23,976 fps, XviD ~1616 kbps avg, 0.234 bit/pixel
Аудио: 48 kHz, AC3 Dolby Digital, 2/0 (L,R) ch, ~192 kbps - VO
Аудио 2: 48 kHz, AC3 Dolby Digital, 2/0 (L,R) ch, ~192 kbps - ENG
Субтитры: Русские - перевод: yaroslav230596
Субтитры 2: Английские

Подробные технические данные

Общее
Полное имя : D:\2014 Scooby-Doo! Ghastly Goals\Scooby-Doo! Ghastly Goals.avi
Формат : AVI
Формат/Информация : Audio Video Interleave
Размер файла : 325 Мбайт
Продолжительность : 22 м.
Общий поток : 2011 Кбит/сек
Программа кодирования : VirtualDubMod 1.5.10.2 (build 2540/release)
Библиотека кодирования : VirtualDubMod build 2540/release
Видео
Идентификатор : 0
Формат : xvid
Идентификатор кодека : xvid
Продолжительность : 22 м.
Битрейт : 1616 Кбит/сек
Ширина : 720 пикселей
Высота : 400 пикселей
Соотношение сторон : 16:9
Частота кадров : 23,976 кадра/сек
Бит/(Пиксели*Кадры) : 0.234
Размер потока : 261 Мбайт (80%)
Аудио #1
Идентификатор : 1
Формат : AC-3
Формат/Информация : Audio Coding 3
Расширение режима : CM (complete main)
Параметр Endianness формата : Big
Идентификатор кодека : 2000
Продолжительность : 22 м.
Вид битрейта : Постоянный
Битрейт : 192 Кбит/сек
Каналы : 2 канала
Расположение каналов : Front: L R
Частота : 48,0 КГц
Битовая глубина : 16 бит
Метод сжатия : С потерями
Размер потока : 31,0 Мбайт (10%)
Выравнивание : Соединение по промежуткам
Продолжительность промежутка : 160 мс. (3,84 видеокадра)
Время предзагрузки промежутка : 640 мс.
Аудио #2
Идентификатор : 2
Формат : AC-3
Формат/Информация : Audio Coding 3
Профиль формата : Dolby Digital
Расширение режима : CM (complete main)
Параметр Endianness формата : Big
Идентификатор кодека : 2000
Продолжительность : 22 м.
Вид битрейта : Постоянный
Битрейт : 192 Кбит/сек
Каналы : 2 канала
Расположение каналов : Front: L R
Частота : 48,0 КГц
Битовая глубина : 16 бит
Метод сжатия : С потерями
Размер потока : 31,0 Мбайт (10%)
Выравнивание : Разделение по промежуткам
Продолжительность промежутка : 42 мс. (1,00 видеокадр)
Время предзагрузки промежутка : 500 мс.

Скриншоты

[www.cybertorrent.ru].t1979.torrent 
Торрент: Зарегистрирован [ 2018-02-16 08:44 ] · 77408B307180495E7D0CE382BCA3D87D41F85444

Скачать .torrent

Скачать

13 KB

Статус: проверено
Скачан: 0 раз
Размер: 325 MB
Профиль [ЛС]
Показать сообщения:    

Текущее время: 21-Авг 13:26

Часовой пояс: UTC ± 0



Вы не можете начинать темы
Вы не можете отвечать на сообщения
Вы не можете редактировать свои сообщения
Вы не можете удалять свои сообщения
Вы не можете голосовать в опросах
Вы не можете прикреплять файлы к сообщениям
Вы можете скачивать файлы
Torrents24.ru открытый BitTorrent Torrents24.pl открытый BitTorrent CyberTorrent.ru открытый BitTorrent BtList.ru рейтинг BitTorrent трекеров Яндекс.Метрика