BitTorrent клиенты



Тошка и его друзья. История первая. Тошка и героический поступок (Александр Ленкин) [2017, Республика Беларусь, детский, приключения, DVB]

Ответить на тему
 
Автор Сообщение

Alex ®

Пол: Не указан

Стаж: 1 год

Сообщений: 855

Создавать темы 06-Фев-2018 00:57

[Цитировать]

Тошка и его друзья. История первая. Тошка и героический поступок
Страна: Республика Беларусь
Жанр: детский, приключения
Продолжительность: 00:12:59
Год выпуска: 2017
Перевод: Не требуется
Русские субтитры: нет
Режиссёр: Александр Ленкин
Описание: Всё началось в одно прекрасное утро, неподалёку от озера носящего романтичное название - Нарочь. Здесь появился на свет необычный герой, названный в честь деда – картофелинка Тошка. Тошка знакомится с дедушкой. Дедушка учит малыша фантазировать, но малышу оказывается недостаточно фантазий, и он отправляется познавать мир. Дедушка на всякий случай отправляется за внуком. Мало ли что может произойти в незнакомом мире. По пути Тошка знакомится с божьей коровкой Бусей и гусеницей Гусей. А в это время на детской площадке полосатый жучище сильно раскачивает маленькую букашку на длинных качелях. Той очень страшно, поэтому она плачет. Слёзы ручьями брызжут из глаз. Жук Жужа злорадно смеётся. Тошка и его новые друзья вступают в неравный бой с Жужей Колорадским.
Доп. информация: НАГРАДЫ:
  • Диплом национального конкурса Минского международного фестиваля «Лістапад» 2017 года.
    Сценарий: АЛЕКСАНДР ЛЕНКИН, СЕРГЕЙ БУЛЫГА
    Производство: НАЦИОНАЛЬНАЯ КИНОСТУДИЯ «БЕЛАРУСЬФИЛЬМ»

О РЕЖИССЕРАХ - Александр Ленкин


Родился в Минске в 1961 году. С 1978 по 1980 гг. учился в Московском театральном училище им. М. С. Щепкина. В 1982 г. окончил Белорусский Театрально-художественный институт, актёрское отделение. С 1984 года работает режиссером-мультипликатором на киностудии «Беларусьфильм». Призер международный и национальных фестивалей.
Запись потока *.ts с наземного цифрового телеканала "Беларусь 3".
Благодарность: за помощь с недостающим материалом Bartimeyse и PavelDAS. Обоим большое спасибо!
Мои раздачи:Качество: DVB
Контейнер: TS
Видео кодек: H.264
Аудио кодек: MP2
Видео: MPEG4 Video (H264) 720(785)x576 (49:36) 25fps, 2 045 kb/s
Аудио : MPEG Audio 48000Hz stereo 256kbps
Субтитры: отсутствуют
Семпл: http://multi-up.com/1180282

Подробные технические данные

General
ID : 1 (0x1)
Complete name : Z:\002 раздачи\Мультфильмы\Тошка и его друзья (2017)\Тошка и его друзья. Тошка и героический поступок (2017).ts
Format : MPEG-TS
File size : 225 MiB
Duration : 12 min
Overall bit rate mode : Variable
Overall bit rate : 2 423 kb/s
Video
ID : 801 (0x321)
Menu ID : 1 (0x1)
Format : AVC
Format/Info : Advanced Video Codec
Format profile : Main@L3
Format settings, CABAC : Yes
Format settings, ReFrames : 4 frames
Format settings, GOP : M=4, N=24
Codec ID : 27
Duration : 12 min
Bit rate : 2 045 kb/s
Width : 720 pixels
Height : 576 pixels
Display aspect ratio : 4:3
Frame rate : 25.000 FPS
Standard : PAL
Color space : YUV
Chroma subsampling : 4:2:0
Bit depth : 8 bits
Scan type : MBAFF
Scan type, store method : Separated fields
Scan order : Top Field First
Bits/(Pixel*Frame) : 0.197
Stream size : 190 MiB (84%)
Color range : Limited
Color primaries : BT.601 PAL
Transfer characteristics : BT.470 System B, BT.470 System G
Matrix coefficients : BT.601
Audio
ID : 802 (0x322)
Menu ID : 1 (0x1)
Format : MPEG Audio
Format version : Version 1
Format profile : Layer 2
Codec ID : 3
Duration : 12 min
Bit rate mode : Constant
Bit rate : 256 kb/s
Channel(s) : 2 channels
Sampling rate : 48.0 kHz
Compression mode : Lossy
Stream size : 23.8 MiB (11%)
Language : English

Скриншоты

[Профиль] [ЛС]
Показать сообщения:    
Ответить на тему

Текущее время: 20-Фев 06:57

Часовой пояс: UTC + 3



Вы не можете начинать темы
Вы не можете отвечать на сообщения
Вы не можете редактировать свои сообщения
Вы не можете удалять свои сообщения
Вы не можете голосовать в опросах
Вы не можете прикреплять файлы к сообщениям
Вы можете скачивать файлы