Статистика раздачи
Размер:  75,87 GB   |    Зарегистрирован:  4 месяца 4 дня   |    Скачан:  0 раз

Полного источника не было: Никогда

 
   
 
 

martin ®

Пол:
Не указан
Стаж:
4 месяца 5 дней
Сообщений:
41

Аватар: Легенда о КорреThe Legend of Korra«There's a new Avatar in town!»- Страна: США
Жанр: мультфильм, фэнтези, боевик, приключения, семейный
Год выпуска: 2013 (2 сезон)
Продолжительность: 00:24:04-Перевод:
Профессиональный (полное дублирование)
Любительский (двухголосый)
Субтитры:
русские (Notabenoid)
английские-Режиссер: Хоаким Дос Сантос / Joaquim Dos Santos, Ки Хьюн Рю / Ki Hyun Ryu
В ролях:
Джанет Варни (Корра), Джонатан Симмонс (Тензин), Кирнан Шипка (Джинора), Дэвид Фаустино (Мако), П. Дж. Бирн (Болин), Дэниэл Дэ Ким (Хироши Сато), Сейшелл Гэбриел (Асами), Лэнс Хенриксен (Лейтенант)
Дублёры:
Ольга Шорохова (Korra), Александр Гаврилин (Mako; Aang; Sokka), Валерий Сторожик (Bolin), Владимир Антоник (Tenzin; Amon; Hiroshi Sato), Мария Овчинникова (Asami Sato; Ikki; Lin Beifong; Katara), Никита Прозоровский (Lieutenant; Saikhan; Tahno), Ольга Сирина (Jinora; Toph Beifong), Людмила Шувалова-Описание: Действие книги разворачивается через полгода после победы аватара Корры над Амоном и Уравнителями. Совет был распущен, и Объединенная Республика выбрала своего первого президента. Брат Тензина, командир Буми, ушел в отставку и перебрался на Остров Храма Воздуха. В Республиканский город пришли мир и гармония, но Аватар даже не подозревает, что Южное Племя Воды находится в огромной опасности.

Список серий

1. The Rebel Spirit / Мятежный дух
2. The Southern Lights / Южное сияние
3. Civil Wars. Part 1 / Гражданские войны, Часть 1
4. Civil Wars. Part 2 / Гражданские войны, Часть 2
5. Peacekeepears / Миротворцы
6. The Sting / Приманка
7. Beginnings: Part 1 / Начало начал, Часть 1
8. Beginnings: Part 2 / Начало начал, Часть 2
9. The Guide / Проводник
10. A New Spiritual Age / Новая эра духов
11. Night of a Thousand Stars / Ночь тысячи звезд
12. Harmonic Convergence / Гармоничное сближение
13. Darkness Falls / Тьма опускается
14. Light in the Dark / Свет во Тьме
-
-Цитата:К сериям 2-14 дубляж записан с Nickelodeon HD, за что спасибо #Antisnl#, Beer kolesik Drinkers, HPotter.
1 эпизод записать c HD не удалось, поэтому звук был взят с SD-записи, за неё спасибо DARKAN. Также из SD-версии есть вставки на проблемные места в 7 эпизоде, общим временем около секунды.
За русские субтитры спасибо пользователям Notabenoid. Я дополнительно прогнал их через спеллчекер, вставил названия эпизодов на свои места.
За чистые голоса SkyeFilmTV спасибо JonEA.-Сэмпл
Качество: BDRemux
Контейнер: MKV
Видео: AVC, 1920x1080 (16:9), 23485 kbps, 29.970 fps, 0,378 bpp
Аудио №1: русский / AC3 / 2.0 / 48 kHz / 384 kbps / 16 bit |Дубляж [SDI Media]|
Аудио №2: русский / DTS-HD / 5.1 / 48 kHz / ~3600 kbps / 24 bit (Core: 5.1 / 48 kHz / 1510 kbps / 24 bit) |DVO [SkyeFilmTV]|
Аудио №3: английский / DTS-HD / 5.1 / 48 kHz / ~3600 kbps / 24 bit (Core: 5.1 / 48 kHz / 1510 kbps / 24 bit)
Аудио №4: английский / AC3 / 2.0 / 48 kHz / 224 kbps / 16 bit |Комментарии|-

Скриншоты

MediaInfo

General
Unique ID : 209577164159825717066012588880219822408 (0x9DAB17F6ECA31302895D0E51B4875948)
Complete name : D:\Корра Духи\The.Legend.of.Korra.S02.2013.BDRemux.1080i.Dub.DVO.Subs\E01.Rebel.Spirit.mkv
Format : Matroska
Format version : Version 4 / Version 2
File size : 5.84 GiB
Duration : 23mn 56s
Overall bit rate mode : Variable
Overall bit rate : 34.9 Mbps
Movie name : 1. Мятежный дух
Encoded date : UTC 2014-08-28 18:01:12
Writing application : mkvmerge v6.6.0 ('The Edge Of The In Between') built on Dec 1 2013 17:55:00
Writing library : libebml v1.3.0 + libmatroska v1.4.1
Video
ID : 1
Format : AVC
Format/Info : Advanced Video Codec
Format profile : High@L4.1
Format settings, CABAC : Yes
Format settings, ReFrames : 4 frames
Codec ID : V_MPEG4/ISO/AVC
Duration : 23mn 56s
Bit rate mode : Variable
Maximum bit rate : 40.0 Mbps
Width : 1 920 pixels
Height : 1 080 pixels
Display aspect ratio : 16:9
Frame rate mode : Constant
Frame rate : 29.970 fps
Color space : YUV
Chroma subsampling : 4:2:0
Bit depth : 8 bits
Scan type : MBAFF
Default : Yes
Forced : No
Audio #1
ID : 2
Format : AC-3
Format/Info : Audio Coding 3
Mode extension : CM (complete main)
Format settings, Endianness : Big
Codec ID : A_AC3
Duration : 23mn 56s
Bit rate mode : Constant
Bit rate : 384 Kbps
Channel(s) : 2 channels
Channel positions : Front: L R
Sampling rate : 48.0 KHz
Bit depth : 16 bits
Compression mode : Lossy
Stream size : 65.7 MiB (1%)
Title : Дубляж
Language : Russian
Default : Yes
Forced : No
Audio #2
ID : 3
Format : DTS
Format/Info : Digital Theater Systems
Format profile : MA / Core
Mode : 16
Format settings, Endianness : Big
Codec ID : A_DTS
Duration : 23mn 56s
Bit rate mode : Variable
Bit rate : Unknown / 1 509 Kbps
Channel(s) : 6 channels
Channel positions : Front: L C R, Side: L R, LFE
Sampling rate : 48.0 KHz
Bit depth : 24 bits
Compression mode : Lossless / Lossy
Title : SkyeFilmTV
Language : Russian
Default : No
Forced : No
Audio #3
ID : 4
Format : DTS
Format/Info : Digital Theater Systems
Format profile : MA / Core
Mode : 16
Format settings, Endianness : Big
Codec ID : A_DTS
Duration : 23mn 56s
Bit rate mode : Variable
Bit rate : Unknown / 1 509 Kbps
Channel(s) : 6 channels
Channel positions : Front: L C R, Side: L R, LFE
Sampling rate : 48.0 KHz
Bit depth : 24 bits
Compression mode : Lossless / Lossy
Title : Оригинал
Language : English
Default : No
Forced : No
Audio #4
ID : 5
Format : AC-3
Format/Info : Audio Coding 3
Mode extension : CM (complete main)
Format settings, Endianness : Big
Codec ID : A_AC3
Duration : 23mn 56s
Bit rate mode : Constant
Bit rate : 224 Kbps
Channel(s) : 2 channels
Channel positions : Front: L R
Sampling rate : 48.0 KHz
Bit depth : 16 bits
Compression mode : Lossy
Stream size : 38.3 MiB (1%)
Title : Комментарии
Language : English
Default : No
Forced : No
Text #1
ID : 6
Format : UTF-8
Codec ID : S_TEXT/UTF8
Codec ID/Info : UTF-8 Plain Text
Language : Russian
Default : No
Forced : No
Text #2
ID : 7
Format : UTF-8
Codec ID : S_TEXT/UTF8
Codec ID/Info : UTF-8 Plain Text
Language : English
Default : No
Forced : No
-Все раздачи мультсериала
[www.cybertorrent.ru].t1971.torrent 
Торрент: Зарегистрирован [ 2018-02-16 08:44 ] · D51C69ADB376173387D06ACCA5D4A329889C8E1A

Скачать .torrent

Скачать

191 KB

Статус: проверено
Скачан: 0 раз
Размер: 75,87 GB
Профиль [ЛС]
Показать сообщения:    

Текущее время: 20-Июн 12:51

Часовой пояс: UTC ± 0



Вы не можете начинать темы
Вы не можете отвечать на сообщения
Вы не можете редактировать свои сообщения
Вы не можете удалять свои сообщения
Вы не можете голосовать в опросах
Вы не можете прикреплять файлы к сообщениям
Вы можете скачивать файлы