BitTorrent клиенты



Душевная боль / Khawto / The Wound (Камалешвар Мукхерджи / Kamaleswar Mukherjee) [2016, Индия, триллер, драма, HDRip-AVC] DVO + Sub (Rus)

Ответить на тему
 
Автор Сообщение

Alex ®

Пол: Не указан

Стаж: 1 год

Сообщений: 855

Создавать темы 06-Фев-2018 00:57

[Цитировать]

Душевная боль
Khawto- Страна: Индия
Жанр: триллер, драма
Год выпуска: 2016
Продолжительность: 02:12:24Перевод: Любительский (двухголосый закадровый) озвучка: kraffty и Юлия Семыкина; сведение звука Юлия Семыкина
Субтитры: русские (перевод Юлия Семыкина)
Оригинальная аудиодорожка: нет
Режиссер: Камалешвар Мукхерджи / Kamaleswar Mukherjee
В ролях: Прасенджит Чаттерджи / Prasenjit Chatterjee (Nirbed Lahiri), Райма Сен / Raima Sen (Srijita), Паоли Дам / Paoli Dam (Damayanti Chakraborty / Antara), Рахул Банерджи / Rahul Banerjee (Alokesh), Рандип Босе / Ranodeep Bose (Rishav), Тридха Чаудхари / Tridha Choudhury (Sohaag)
Описание: Влюблённая парочка приезжает на берег моря, чтобы поразвлечься, и встречает странного человека, который рассказывает им историю своей порочной любви.
Доп. информация: за релиз благодарность Яне Будяк, larisa_k и Марине Комаровой.
Награды: приз за лучшую женскую роль (Paoli Dam) Zee Cine Awards 2017; приз за лучшую мужскую роль (Prasenjit Chatterjee) WBFJA Award 2017.
Качество видео: HDRip-AVC
Формат видео: MKV
Видео: AVC (H.264), 1152х496 (2.35:1), 23,976 fps, ~1140 kbps avg, 0.083 bit/pixel
Аудио: AC3, 5.1 ch, 48 kHz, 448 kbps
Формат субтитров: softsub (SRT)

MediaInfo

General
Unique ID : 147925192512709172217020460558018742305 (0x6F495B14543F50ED6AC710F040E10821)
Complete name : [apreder]Khawto(2016)HDRip.mkv
Format : Matroska
Format version : Version 2
File size : 1.47 GiB
Duration : 2 h 12 min
Overall bit rate : 1 587 kb/s
Movie name : Khawto
Released date : 2016-07-22
Encoded date : UTC 2017-12-18 14:05:21
Writing application : mkvmerge v19.0.0 ('Brave Captain') 64-bit
Writing library : libebml v1.3.5 + libmatroska v1.4.8
Cover : Yes
Attachments : cover.jpg / small_cover.jpg
ACTOR : Prasenjit Chatterjee, Raima Sen, Paoli Dam
DIRECTOR : Kamaleswar Mukherjee
GENRE : Thriller
IMDB : tt6158872
KEYWORDS : rutracker.org
LAW_RATING : 16+
Video
ID : 1
Format : AVC
Format/Info : Advanced Video Codec
Format profile : High@L4.1
Format settings : CABAC / 9 Ref Frames
Format settings, CABAC : Yes
Format settings, RefFrames : 9 frames
Codec ID : V_MPEG4/ISO/AVC
Duration : 2 h 12 min
Bit rate : 1 140 kb/s
Width : 1 152 pixels
Height : 496 pixels
Display aspect ratio : 2.35:1
Frame rate mode : Constant
Frame rate : 23.976 (24000/1001) FPS
Color space : YUV
Chroma subsampling : 4:2:0
Bit depth : 8 bits
Scan type : Progressive
Bits/(Pixel*Frame) : 0.083
Stream size : 1.02 GiB (70%)
Writing library : x264 core 152 r2851 ba24899
Encoding settings : cabac=1 / ref=9 / deblock=1:-1:-1 / analyse=0x3:0x133 / me=umh / subme=10 / psy=1 / psy_rd=1.00:0.15 / mixed_ref=1 / me_range=24 / chroma_me=1 / trellis=2 / 8x8dct=1 / cqm=0 / deadzone=21,11 / fast_pskip=1 / chroma_qp_offset=-3 / threads=15 / lookahead_threads=3 / sliced_threads=0 / nr=0 / decimate=1 / interlaced=0 / bluray_compat=0 / constrained_intra=0 / bframes=16 / b_pyramid=2 / b_adapt=2 / b_bias=0 / direct=3 / weightb=1 / open_gop=0 / weightp=2 / keyint=240 / keyint_min=23 / scenecut=40 / intra_refresh=0 / rc_lookahead=60 / rc=2pass / mbtree=1 / bitrate=1140 / ratetol=1.0 / qcomp=0.60 / qpmin=0 / qpmax=69 / qpstep=4 / cplxblur=20.0 / qblur=0.5 / vbv_maxrate=62500 / vbv_bufsize=78125 / nal_hrd=none / filler=0 / ip_ratio=1.40 / aq=1:1.00
Default : Yes
Forced : No
Audio
ID : 2
Format : AC-3
Format/Info : Audio Coding 3
Codec ID : A_AC3
Duration : 2 h 12 min
Bit rate mode : Constant
Bit rate : 448 kb/s
Channel(s) : 6 channels
Channel positions : Front: L C R, Side: L R, LFE
Sampling rate : 48.0 kHz
Frame rate : 31.250 FPS (1536 SPF)
Bit depth : 16 bits
Compression mode : Lossy
Stream size : 424 MiB (28%)
Language : Russian
Service kind : Complete Main
Default : Yes
Forced : No
Text
ID : 3
Format : UTF-8
Codec ID : S_TEXT/UTF8
Codec ID/Info : UTF-8 Plain Text
Language : Russian
Default : No
Forced : No
Menu
00:00:00.000 : en:Chapter 01
00:03:07.000 : en:Chapter 02
00:09:00.000 : en:Chapter 03
00:13:48.000 : en:Chapter 04
00:23:22.000 : en:Chapter 05
00:25:23.500 : en:Chapter 06
00:38:06.500 : en:Chapter 07
00:39:16.500 : en:Chapter 08
00:43:00.500 : en:Chapter 09
00:52:10.500 : en:Chapter 10
01:05:29.500 : en:Chapter 11
01:09:56.000 : en:Chapter 12
01:27:53.000 : en:Chapter 13
01:36:59.000 : en:Chapter 14
01:45:15.000 : en:Chapter 15
01:46:13.000 : en:Chapter 16
01:47:59.500 : en:Chapter 17
02:01:38.000 : en:Chapter 18
02:06:49.000 : en:Chapter 19
02:10:15.000 : en:Chapter 20

Скриншот c названием фильма

Скриншоты


Резервные скриншоты


- [3'981]
[Профиль] [ЛС]
Показать сообщения:    
Ответить на тему

Текущее время: 23-Фев 00:28

Часовой пояс: UTC + 3



Вы не можете начинать темы
Вы не можете отвечать на сообщения
Вы не можете редактировать свои сообщения
Вы не можете удалять свои сообщения
Вы не можете голосовать в опросах
Вы не можете прикреплять файлы к сообщениям
Вы можете скачивать файлы