Статистика раздачи
Размер:  2,26 GB   |    Зарегистрирован:  6 месяцев 4 дня   |    Скачан:  0 раз

Полного источника не было: Никогда

 
   
 
 

martin ®

Пол:
Не указан
Стаж:
6 месяцев 5 дней
Сообщений:
47

Аватар: Легенда о Корре / The Legend of Korra
Страна: США
Жанр: мультсериал, приключения, семейный, фэнтези
Продолжительность: ~ 23 минуты
Год выпуска: 2014
Перевод: Любительский (двухголосый закадровый)[LE-Production]
Русские субтитры: нет
Режиссёр: Майкл Данте Димартино, Брайан Кониецко / Michael Dante DiMartino, Bryan Konietzko
Роли озвучивали: Тимиркан Сиюхов и Маргарита Щелкунова
Описание: Мир вступает в новую эру! Гармоническое сближение вызвало сдвиг в энергетическом поле планеты, а Республиканский город спустя недели всё ещё не оправился после битвы Корры и УнаВаату. Весь город зарос и превратился в джунгли, которые новоприбывшие духи считают своим домом. Но не ждут ли наш город ещё какие-то перемены?
Список серий:
01. Глоток свежего воздуха
02. Перерождение
03. Королева Земли
04. В опасности
05. Клан Металла
06. Старые раны
07. Истинные маги воздуха
08. Ужас внутри
09. Надзор
10. Да здравствует Королева!
11. Ультиматум
12. Вступи в пустоту
13. Яд Красного лотоса
Все раздачи мультсериала
Семпл: http://sendfile.su/1015384
Качество: HDTVRip
Формат: AVI
Видео: XVID, 720х400 (16:9), 23.976 fps, ~900 kbps
Аудио: MP3, 48000 Hz, 2 ch, 192 kbps
Субтитры: отсутствуют

Подробные технические данные

Формат : AVI
Формат/Информация : Audio Video Interleave
Размер файла : 179 Мбайт
Продолжительность : 22 м.
Общий поток : 1125 Кбит/сек
Программа кодирования : MEncoder SVN-r33883(20110719-gcc4.5.2)
Библиотека кодирования : MPlayer
Видео
Идентификатор : 0
Формат : MPEG-4 Visual
Профиль формата : Advanced Simple@L5
Параметр BVOP формата : 2
Параметр QPel формата : Нет
Параметр GMC формата : Без точки перехода
Параметр матрицы формата : Default (H.263)
Идентификатор кодека : XVID
Идентификатор кодека/Подсказка : XviD
Продолжительность : 22 м.
Битрейт : 900 Кбит/сек
Ширина : 720 пикселей
Высота : 400 пикселей
Соотношение сторон : 16:9
Частота кадров : 23,976 кадра/сек
Цветовое пространство : YUV
Субдискретизация насыщенности : 4:2:0
Битовая глубина : 8 бит
Тип развёртки : Прогрессивная
Метод сжатия : С потерями
Бит/(Пиксели*Кадры) : 0.133
Размер потока : 146 Мбайт (82%)
Библиотека кодирования : XviD 1.2.1 (UTC 2008-12-04)
Аудио
Идентификатор : 1
Формат : MPEG Audio
Версия формата : Version 1
Профиль формата : Layer 3
Режим : Joint stereo
Расширение режима : MS Stereo
Идентификатор кодека : 55
Идентификатор кодека/Подсказка : MP3
Продолжительность : 22 м.
Вид битрейта : Постоянный
Битрейт : 192 Кбит/сек
Каналы : 2 канала
Частота : 48,0 КГц
Метод сжатия : С потерями
Задержка видео : 42 мс.
Размер потока : 30,5 Мбайт (17%)
Выравнивание : Соединение по промежуткам
Продолжительность промежутка : 24 мс. (0,58 видеокадр)
Время предзагрузки промежутка : 504 мс.
Библиотека кодирования : LAME3.98.4

Скриншоты

[www.cybertorrent.ru].t1970.torrent 
Торрент: Зарегистрирован [ 2018-02-16 08:44 ] · 713F65A70249107674F3A9CE9081E705AB9DD2F8

Скачать .torrent

Скачать

13 KB

Статус: проверено
Скачан: 0 раз
Размер: 2,26 GB
Профиль [ЛС]
Показать сообщения:    

Текущее время: 20-Авг 12:16

Часовой пояс: UTC ± 0



Вы не можете начинать темы
Вы не можете отвечать на сообщения
Вы не можете редактировать свои сообщения
Вы не можете удалять свои сообщения
Вы не можете голосовать в опросах
Вы не можете прикреплять файлы к сообщениям
Вы можете скачивать файлы
Torrents24.ru открытый BitTorrent Torrents24.pl открытый BitTorrent CyberTorrent.ru открытый BitTorrent BtList.ru рейтинг BitTorrent трекеров Яндекс.Метрика