Статистика раздачи
Размер:  5,4 GB   |    Зарегистрирован:  4 месяца 4 дня   |    Скачан:  0 раз

Полного источника не было: Никогда

 
   
 
 

Gomer ®

Пол:
Не указан
Стаж:
4 месяца 5 дней
Сообщений:
40

Гриффины / Family Guy
Страна: США
Жанр: Комедия, Пародия, Сатира
Продолжительность: ~20 минут
Год выпуска: 2012-2013
Перевод: Профессиональный (многоголосый закадровый)
Русские субтитры: нет
Режиссёр: Сет МакФарлейн / Seth MacFarlane
Роли озвучивали: Олег Форостенко - Питер, Кливленд и другие.
Илья Хвостиков - Брайан, Стьюи, Куагмир и другие.
Людмила Ильина - все женские и детские роли.
Описание: "Гриффины" - анимационное ТВ-шоу, созданное Сетом МакФарлейном для телеканала FOX. Как нетрудно догадаться, главными героями шоу является семейка Гриффинов: тупой, но полный сумасшедших идей, составляющих львиную долю шуток сериала, отец семейства Питер; его любящая и терпеливая жена Лоис, всеми силами пытающаяся превратить Гриффинов в нормальную семью; их интеллектуально развитый не по годам, вынашивающий идею мирового господства младший сын Стьюи; дочь-ботаник, обречённая из-за этого на одиночество и непонимание как в школе так и дома, Мэг; и 13-ти летний отсталый в развитии лет на 10, сын Крис. Также полноценным членом семьи является пёс Брайан - склонный к меланхолии эстет, спокойно наблюдающий с бокалом вина в лапе над приключениями Питера и остальных членов семьи (и это при всём притом, что остальные собаки в сериале не являются очеловеченными).
Список серий:
01. Into Fat Air (В разрежённый воздух)
02. Ratings Guy (Рейтинг Гриффинов)
03. The Old Man and the Big 'C' (Старик и горе)
04. Yug Ylimaf (Ыниффирг)
200. Гриффины: 200 эпизодов спустя.
05. Joe's Revenge (Месть Джо)
06. Lois Comes Out of Her Shell (Лоис раскрепощается)
07. Friends Without Benefits (Просто друзья)
08. Jesus, Mary and Joseph! (Иисус, Мария и Иосиф!)
09. Space Cadet (Космический дурачок)
10. Brian's Play (Пьеса Брайана)
11. The Giggity Wife (Жена, трах-тибидох)
12. Valentine's Day in Quahog (День святого Валентина в Куахоге)
13. Chris Cross (Крис Кросс)
14. Call Girl (Девушка по вызову)
15. Turban Cowboy (Ковбой в тюрбане)
16. 12 and a Half Angry Men (12 c половиной разгневанных мужиков)
17. Bigfat (Бигфут)
18. Total Recall (Вспомнить всё)
19. Save the Clam (Спасти Устрицу)
20. Farmer Guy (Гриффины-фермеры)
21. Roads to Vegas (Дорога в Вегас)
22. No Country Club for Old Men (Загородный клуб не для Стариков)
Доп. информация: Представляю новый 11 сезон мультсериала "Гриффины" в переводе телеканала 2х2. Новый сезон озвучивают те же актёры, что и предыдущий 10 сезон, плюс на сей раз сезон показывают (наконец-то!) в формате 16:9 с горизонтальными полосами по краям экрана, чем не могли похвастаться SatRipы 9 и 10 сезона формата 4:3 (в то время как оригинальная картинка уже была 16:9). В общем наслаждайтесь!
Плюс в раздачу включён праздничный эпизод "Гриффины: 200 эпизодов спустя", не являющийся частью сезона, но показанный по 2х2 под номером 12№5 29 августа (подобное было в 6 сезоне, когда 2х2 показал 100 праздничный эпизод под номером 7№14)
Внимание! 21 серия - временно другого качества Avi-версия с разрешением 720х416, созданная на основе аналогичного Mkv-файла из раздачи v.serij2013. Память иногда подводит, вот и забыл её записать. При ближайшем повторе - заменю на обычное качество, обязательно
Ссылка на предыдущие и альтернативные раздачи: http://cybertorrent.ru/tracker.php?nm=Family%20Guy
Качество: SATRip
Формат: AVI
Видео: Xvid, 720х576, 25.00fps, 1700 kbps
Аудио: MPEG Audio Layer 3, 48000Hz, stereo, 192 kbps
Субтитры: отсутствуют

Подробные технические данные

General
Complete name : C:\Documents and Settings\Admin\Мои документы\Гриффины 11\01. Into Fat Air.avi
Format : AVI
Format/Info : Audio Video Interleave
File size : 243 MiB
Duration : 20mn 0s
Overall bit rate : 1 700 Kbps
Writing application : Lavf52.61.0
Video
ID : 0
Format : MPEG-4 Visual
Format profile : Simple@L1
Format settings, BVOP : No
Format settings, QPel : No
Format settings, GMC : No warppoints
Format settings, Matrix : Default (H.263)
Codec ID : XVID
Codec ID/Hint : XviD
Duration : 20mn 0s
Bit rate : 1 495 Kbps
Width : 720 pixels
Height : 576 pixels
Display aspect ratio : 4:3
Frame rate : 25.000 fps
Standard : PAL
Color space : YUV
Chroma subsampling : 4:2:0
Bit depth : 8 bits
Scan type : Progressive
Compression mode : Lossy
Bits/(Pixel*Frame) : 0.144
Stream size : 214 MiB (88%)
Writing library : Lavc52.66.0
Audio
ID : 1
Format : MPEG Audio
Format version : Version 1
Format profile : Layer 3
Mode : Joint stereo
Mode extension : MS Stereo
Codec ID : 55
Codec ID/Hint : MP3
Duration : 20mn 0s
Bit rate mode : Constant
Bit rate : 192 Kbps
Channel(s) : 2 channels
Sampling rate : 44.1 KHz
Compression mode : Lossy
Stream size : 27.5 MiB (11%)
Alignment : Aligned on interleaves
Interleave, duration : 26 ms (0.65 video frame)

Скриншоты



[www.cybertorrent.ru].t1966.torrent 
Торрент: Зарегистрирован [ 2018-02-16 08:44 ] · 95DCE85AFCEE5B59AE14769B3357592D89D78C88

Скачать .torrent

Скачать

15 KB

Статус: проверено
Скачан: 0 раз
Размер: 5,4 GB
Профиль [ЛС]
Показать сообщения:    

Текущее время: 20-Июн 13:04

Часовой пояс: UTC ± 0



Вы не можете начинать темы
Вы не можете отвечать на сообщения
Вы не можете редактировать свои сообщения
Вы не можете удалять свои сообщения
Вы не можете голосовать в опросах
Вы не можете прикреплять файлы к сообщениям
Вы можете скачивать файлы